(Symphonic Classical ) Tarja Turunen & Harus - In Concert: Live at Sibelius Hall - 2011, FLAC (image+.cue), lossless


 

[Цитировать]

Tarja Turunen & Harus - In Concert: Live at Sibelius Hall
Жанр: Symphonic Classical
Год выпуска диска: 2011
Издатель (лейбл): Soyuz
Производитель диска: Finland
Аудио кодек: FLAC
Тип рипа: image+.cue
Битрейт аудио: lossless
Продолжительность: 59:50
Источник (релизер): rd
Наличие сканов в содержимом раздачи: да
Треклист:
01. Arkihuolesi Kaikki Heita
02. Ave Maria Op. 80
03. Ave Maria
04. Maa On Niin Kaunis
05. Varpunen Jouluaamuna
06. Heinilla Harkien
07. En Etsi Valtaa Loistoa
08. Jouluyo, Juhlayo (Silent Night)
09. Astral Bells
10. You Would Have Loved This
11. Walking In The Air
12. Improvisation: Variations Sur Un Noel
http://www.t-turunen.org/2011/10/tarja-turunen-harus-artwork-revealed/

Лог создания рипа

Exact Audio Copy V1.0 beta 3 from 29. August 2011
EAC extraction logfile from 26. December 2011, 13:15
Tarja Turunen / Tarja Turunen & Harus Live at Sibelius Hall
Used drive : MATSHITABD-CMB UJ242AS Adapter: 0 ID: 1
Read mode : SecureUtilize accurate stream : YesDefeat audio cache : YesMake use of C2 pointers : No
Read offset correction : 103Overread into Lead-In and Lead-Out : NoFill up missing offset samples with silence : YesDelete leading and trailing silent blocks : NoNull samples used in CRC calculations : YesUsed interface : Native Win32 interface for Win NT & 2000
Used output format : User Defined EncoderSelected bitrate : 32 kBit/sQuality : HighAdd ID3 tag : YesCommand line compressor : C:\Program Files (x86)\Exact Audio Copy\Flac\flac.exeAdditional command line options : -6 -V %source%
TOC of the extracted CD
Track | Start | Length | Start sector | End sector --------------------------------------------------------- 1 | 0:00.00 | 3:37.24 | 0 | 16298 2 | 3:37.24 | 3:09.31 | 16299 | 30504 3 | 6:46.55 | 5:45.43 | 30505 | 56422 4 | 12:32.23 | 3:23.38 | 56423 | 71685 5 | 15:55.61 | 5:17.08 | 71686 | 95468 6 | 21:12.69 | 6:42.17 | 95469 | 125635 7 | 27:55.11 | 4:08.48 | 125636 | 144283 8 | 32:03.59 | 5:10.38 | 144284 | 167571 9 | 37:14.22 | 5:27.23 | 167572 | 192119 10 | 42:41.45 | 5:19.12 | 192120 | 216056 11 | 48:00.57 | 5:44.56 | 216057 | 241912 12 | 53:45.38 | 6:04.61 | 241913 | 269273
Range status and errors
Selected range
Filename C:\EACrip\Tarja Turunen - Tarja Turunen & Harus Live at Sibelius Hall.wav
Peak level 99.4 % Extraction speed 4.2 X Range quality 100.0 % Test CRC 43A742D7 Copy CRC 43A742D7 Copy OK
No errors occurred
AccurateRip summary
Track 1 not present in databaseTrack 2 not present in databaseTrack 3 not present in databaseTrack 4 not present in databaseTrack 5 not present in databaseTrack 6 not present in databaseTrack 7 not present in databaseTrack 8 not present in databaseTrack 9 not present in databaseTrack 10 not present in databaseTrack 11 not present in databaseTrack 12 not present in database
None of the tracks are present in the AccurateRip database
End of status report
==== Log checksum F7226A0501B3FEC142B1991344F780774E48FD30BEF153B5C63EB21256F2AF30 ====

Об альбоме

Тарья Турунен и Harus - это уникальная смесь органа, электрогитары, перкуссии и голоса. Благодаря особой манере Тарьи, придающей ее музыке теплоту и мягкость, альбом понравится как преданным поклонниками певицы, так и любителям классической музыки. За Тарьей прочно закрепился статус звезды в рамках тяжелой музыки. Harus позволит ей, смешивая различные жанры и музыкальные культуры, начать новое путешествие. В переводе с финского - “harus”, специфическое и редко употребляемое слово, означает четыре троса, удерживающие палатку, или трос, удерживающий мачту на парусном судне. Оба значение помогают описать новый проект Тарьи: четыре равнозначных музыканта четырех различных школ создают изысканную классическую музыку, в которой традиция и эксперимент идут рука об руку.



Показать сообщения:    

Текущее время: 08-Дек 17:19

Часовой пояс: UTC + 3


Вы не можете начинать темы
Вы не можете отвечать на сообщения
Вы не можете редактировать свои сообщения
Вы не можете удалять свои сообщения
Вы не можете голосовать в опросах
Вы не можете прикреплять файлы к сообщениям
Вы не можете скачивать файлы