(Classical) VA - The Mail On Sunday - A Touch Of Glass (Compilation) - 2005, APE (image+.cue), lossless


 

[Цитировать]

Various Artists
The Mail On Sunday - A Touch Of Glass
Жанр: Classical
Год выпуска диска: 2005
Производитель диска: UK
Издатель (лейбл): Sony Classical/Respect Music
Номер по каталогу: MOS026
Аудиокодек: APE (*.ape)
Битрейт аудио: lossless
Тип рипа: image+.cue
Продолжительность: 00:57:02
Источник (релизер): собственный рип
Наличие сканов в содержимом раздачи: да

Трэклист

01. Sabre Dance - Vanessa Mae
Taken from the album "Choreography 2004"
02. "Cavatina" from "The Deer Hunter" - John Williams
Taken from the album "John Williams: The Ultimate Guitar Collection" 1996
03. Una Furtiva Lagrima from "L'Elisir D'Amore" - Placido Domingo
Taken from the album "The Essential Placido Domingo" 1977
04. Prelude From Suite No.1 in G Major for Cello - Yo-Yo Ma
Taken from the album "The Essential Yo-Yo Ma" 1997
05. O Mio Babbino Caro from Gianni Schicchi - Joshua Bell
Taken from the album "Romance Of The Violin" 2003
06. Aranjuez Ma Pensee - Summer
Taken from the album "Summer" 2002
07. Che Gelida Manina from "La Boheme" - Luciano Pavarotti
"Puccini" 1987
08. Vissi D'Arte from "Tosca" - Kiri Te Kanawa
"Puccini" 1983
09. Celeste Aida from "Aida" - Salvatore Licitra
Taken from the album "Debut" 2002
10. Band Of Brothers - Simon Milligan
Taken from the album "Piano" 2003
11. Pourquoi Me Reveiller - Marcelo Alvarezr
Taken from the album "The Tenor's Passion" 2001
12. Lakme H2O (Flover Duet) - OperaBabes
Taken from the album "Beyond Imagination" 2002
13. E Lucevan Le Stelle from "Tosca" - Jose Carreras
1990
14. Odissea from Duetto - Marcelo Alvarezr & Salvatore Licitra
2003
15. Amazing Grace - Jose Carreras, Placido Domingo, Luciano Pavarotti
From "Christmas with Three Tenors" 2000

Лог создания рипа

Exact Audio Copy V0.99 prebeta 5 from 4. May 2009
Отчёт EAC об извлечении, выполненном 23. декабря 2011, 14:24
Various / A Touch Of Glass
Дисковод: TSSTcorpCDDVDW SH-S223C Adapter: 3 ID: 0
Режим чтения : ДостоверностьИспользование точного потока : ДаОтключение кэша аудио : ДаИспользование указателей C2 : Нет
Коррекция смещения при чтении : 697Способность читать области Lead-in и Lead-out : НетЗаполнение пропущенных сэмплов тишиной : ДаУдаление блоков с тишиной в начале и конце : НетПри вычислениях CRC использовались нулевые сэмплы : ДаИнтерфейс : Установленный внешний ASPI-интерфейс
Выходной формат : Внутренние WAV-операцииФормат сэмплов : 44.100 Гц; 16 бит; стерео
TOC извлечённого CD
Трек | Старт | Длительность | Начальный сектор | Конечный сектор --------------------------------------------------------------------- 1 | 0:00.00 | 6:01.26 | 0 | 27100 2 | 6:01.26 | 3:09.30 | 27101 | 41305 3 | 9:10.56 | 4:33.66 | 41306 | 61846 4 | 13:44.47 | 2:16.31 | 61847 | 72077 5 | 16:01.03 | 3:18.30 | 72078 | 86957 6 | 19:19.33 | 4:18.15 | 86958 | 106322 7 | 23:37.48 | 4:11.25 | 106323 | 125172 8 | 27:48.73 | 3:29.71 | 125173 | 140918 9 | 31:18.69 | 4:13.40 | 140919 | 159933 10 | 35:32.34 | 4:00.67 | 159934 | 178000 11 | 39:33.26 | 2:50.02 | 178001 | 190752 12 | 42:23.28 | 4:01.22 | 190753 | 208849 13 | 46:24.50 | 3:09.00 | 208850 | 223024 14 | 49:33.50 | 3:53.50 | 223025 | 240549 15 | 53:27.25 | 3:34.43 | 240550 | 256642
Характеристики диапазона извлечения и сообщения об ошибках
Выбранный диапазон
Имя файла D:\torrent razdacha\[VA] A Touch Of Glass [CD] - 2005 (lossless)\01. Sound\Various - A Touch Of Glass.wav
Пиковый уровень 100.0 % Качество диапазона 100.0 % CRC теста 22D7B8D0 CRC копии 22D7B8D0 Копирование... OK
Ошибок не произошло
AccurateRip: сводка
Трек 1 точное извлечение (доверие 16) [16514C6A]Трек 2 точное извлечение (доверие 16) [5AB38426]Трек 3 точное извлечение (доверие 16) [6CD8E031]Трек 4 точное извлечение (доверие 16) [418DAB24]Трек 5 точное извлечение (доверие 16) [5C1C08E3]Трек 6 точное извлечение (доверие 16) [6ED7406B]Трек 7 точное извлечение (доверие 16) [33ADCA5F]Трек 8 точное извлечение (доверие 16) [3EFEDC69]Трек 9 точное извлечение (доверие 16) [0E9FB330]Трек 10 точное извлечение (доверие 16) [5D89AC77]Трек 11 точное извлечение (доверие 16) [168F4522]Трек 12 точное извлечение (доверие 16) [AE7C21A0]Трек 13 точное извлечение (доверие 16) [D05DC9A4]Трек 14 точное извлечение (доверие 16) [A2B3975A]Трек 15 точное извлечение (доверие 14) [4EBB59CE]
Все треки извлечены точно
Конец отчёта

Содержание индексной карты (.CUE)

REM GENRE ClassicalREM DATE 2005REM DISCID DA0D5D0FREM COMMENT "ExactAudioCopy v0.99pb5"PERFORMER "Various"TITLE "A Touch Of Glass"FILE "Various - A Touch Of Glass.ape" WAVE TRACK 01 AUDIO TITLE "Sabre Dance" PERFORMER "Vanessa Mae" INDEX 01 00:00:00 TRACK 02 AUDIO TITLE "Cavatina from The Deer Hunter" PERFORMER "John Williams" INDEX 00 05:59:26 INDEX 01 06:01:26 TRACK 03 AUDIO TITLE "Una Furtiva Lagrima from L'Elisir D'Amore" PERFORMER "Placido Domingo" INDEX 00 09:08:56 INDEX 01 09:10:56 TRACK 04 AUDIO TITLE "Prelude From Suite No.1 in G Major for Cello" PERFORMER "Yo-Yo Ma" INDEX 00 13:42:47 INDEX 01 13:44:47 TRACK 05 AUDIO TITLE "O Mio Babbino Caro from Gianni Schicchi" PERFORMER "Joshua Bell" INDEX 00 15:59:03 INDEX 01 16:01:03 TRACK 06 AUDIO TITLE "Aranjuez Ma Pensee" PERFORMER "Summer" INDEX 00 19:17:33 INDEX 01 19:19:33 TRACK 07 AUDIO TITLE "Che Gelida Manina from La Boheme" PERFORMER "Luciano Pavarotti" INDEX 00 23:35:48 INDEX 01 23:37:48 TRACK 08 AUDIO TITLE "Vissi D'Arte from Tosca" PERFORMER "Kiri Te Kanawa" INDEX 00 27:46:73 INDEX 01 27:48:73 TRACK 09 AUDIO TITLE "Celeste Aida from Aida" PERFORMER "Salvatore Licitra" INDEX 00 31:16:69 INDEX 01 31:18:69 TRACK 10 AUDIO TITLE "Band Of Brothers" PERFORMER "Simon Milligan" INDEX 00 35:30:34 INDEX 01 35:32:34 TRACK 11 AUDIO TITLE "Pourquoi Me Reveiller" PERFORMER "Marcelo Alvarezr" INDEX 00 39:31:26 INDEX 01 39:33:26 TRACK 12 AUDIO TITLE "Lakme H2O (Flover Duet)" PERFORMER "OperaBabes" INDEX 00 42:21:28 INDEX 01 42:23:28 TRACK 13 AUDIO TITLE "E Lucevan Le Stelle from Tosca" PERFORMER "Jose Carreras" INDEX 00 46:22:50 INDEX 01 46:24:50 TRACK 14 AUDIO TITLE "Odissea from Duetto" PERFORMER "Marcelo Alvarezr & Salvatore Licitra" INDEX 00 49:31:50 INDEX 01 49:33:50 TRACK 15 AUDIO TITLE "Amazing Grace" PERFORMER "Jose Carreras, Placido Domingo, Luciano Pavarotti" INDEX 00 53:25:25 INDEX 01 53:27:25

Лог проверки качества

AUDIOCHECKER v2.0 beta (build 457) - by Dester - opdester@freemail.hu~~~~~~~~~~~~~~~~~~~~~~~~~~~~~~~~~~
Начато: пятница, 23. 12. 2011. - 16:10.26Найдено файлов: 1
1 -===- D:\torrent razdacha\[VA] A Touch Of Glass [CD] - 2005 (lossless)\01. Sound\Various - A Touch Of Glass.ape Извлечение успешно выполнено Заключение: этот трек - MPEG с вероятностью 89% Временный файл удалён.
Завершено: пятница, 23. 12. 2011. - 16:15.17 (Время операции: 0:04.51)

Tau Analyzer

Covers




Показать сообщения:    

Текущее время: 10-Дек 11:57

Часовой пояс: UTC + 3


Вы не можете начинать темы
Вы не можете отвечать на сообщения
Вы не можете редактировать свои сообщения
Вы не можете удалять свои сообщения
Вы не можете голосовать в опросах
Вы не можете прикреплять файлы к сообщениям
Вы не можете скачивать файлы