(Chorus, Neoclassic) Radio Classic Angels и Игорь Крутой - 2011, FLAC (tracks+.cue) lossless


 

[Цитировать]

Radio Classic Angels и Игорь Крутой
Жанр: Chorus, Neoclassic
Страна-производитель диска: Россия
Год издания диска: 2011
Аудиокодек: FLAC
Тип рипа: tracks+.cue
Битрейт аудио: lossless
Продолжительность: 0:42:37
Источник: собственный рип
Наличие сканов в содержимом раздачи: нет
Треклист:
01. Ave Maria 03:58
02. Nella Аantasia 02:19
03. Pie Jesu 03:47
04. Secret Love 02:47
05. La Сaliffa 02:40
06. Moon River 03:25
07. What A Wonderful World 03:18
08. Vois Sur Ton Chemin 02:21
09. Le Cose Che Sei Per Me 03:31
10. Air Suite 05:29
11. Caruso 04:41
12. Sacris Solemnis 04:13
Исполнители:
Детский хор Radio Classic Angels
Рояль - Игорь Крутой
Бэк-вокал - Диана Поленова
Звукорежиссёр - Сергей Алексеев
Аранжировщка - Рафаэль Сафин
Педагог - Ирина Редька
Студия Валерия Пономарёва

Лог создания рипа

Exact Audio Copy V0.99 prebeta 3 from 28. July 2007
Отчёт EAC об извлечении, выполненном 21. декабря 2011, 19:23
Крутой Игорь / Radio Classic Angels
Дисковод: ASUS BC-1205PT Adapter: 1 ID: 0
Режим чтения : ДостоверностьИспользование точного потока : ДаОтключение кэша аудио : ДаИспользование указателей C2 : Нет
Коррекция смещения при чтении : 667Способность читать области Lead-in и Lead-out : НетЗаполнение пропущенных сэмплов тишиной : ДаУдаление блоков с тишиной в начале и конце : НетПри вычислениях CRC использовались нулевые сэмплы : ДаИнтерфейс : Установленный внешний ASPI-интерфейсОбработка зазоров : Добавлено к предыдущему треку
Выходной формат : Пользовательский кодировщикВыбранный битрейт : 768 kBit/sКачество : ВысокийДобавление ID3-тэга : НетУтилита сжатия : C:\Program Files\Exact Audio Copy\FLAC\FLAC.EXEДополнительные параметры : -V -8 -T "artist=%a" -T "title=%t" -T "album=%g" -T "date=%y" -T "tracknumber=%n" -T "genre=%m" %s
TOC извлечённого CD
Трек | Старт | Длительность | Начальный сектор | Конечный сектор --------------------------------------------------------------------- 1 | 0:00.00 | 3:58.64 | 0 | 17913 2 | 3:58.64 | 2:19.68 | 17914 | 28406 3 | 6:18.57 | 3:47.19 | 28407 | 45450 4 | 10:06.01 | 2:47.30 | 45451 | 58005 5 | 12:53.31 | 2:40.47 | 58006 | 70052 6 | 15:34.03 | 3:25.43 | 70053 | 85470 7 | 18:59.46 | 3:18.01 | 85471 | 100321 8 | 22:17.47 | 2:21.70 | 100322 | 110966 9 | 24:39.42 | 3:31.68 | 110967 | 126859 10 | 28:11.35 | 5:29.48 | 126860 | 151582 11 | 33:41.08 | 4:41.71 | 151583 | 172728 12 | 38:23.04 | 4:13.69 | 172729 | 191772
Трек 1
Имя файла C:\_HDmusic\Классика\Radio Classic Angels\Крутой Игорь - 01 - Ave Maria.wav
Длина предзазора 0:00:02.00
Пиковый уровень 98.7 % Качество трека 100.0 % CRC копии 929251F8 Копирование... OK
Трек 2
Имя файла C:\_HDmusic\Классика\Radio Classic Angels\Крутой Игорь - 02 - Nella Аantasia.wav
Длина предзазора 0:00:02.00
Пиковый уровень 98.7 % Качество трека 100.0 % CRC копии 142036AE Копирование... OK
Трек 3
Имя файла C:\_HDmusic\Классика\Radio Classic Angels\Крутой Игорь - 03 - Pie Jesu.wav
Длина предзазора 0:00:02.00
Пиковый уровень 98.7 % Качество трека 100.0 % CRC копии 1F343B2F Копирование... OK
Трек 4
Имя файла C:\_HDmusic\Классика\Radio Classic Angels\Крутой Игорь - 04 - Secret Love.wav
Длина предзазора 0:00:02.00
Пиковый уровень 98.7 % Качество трека 100.0 % CRC копии 68F550C9 Копирование... OK
Трек 5
Имя файла C:\_HDmusic\Классика\Radio Classic Angels\Крутой Игорь - 05 - La Сaliffa.wav
Длина предзазора 0:00:02.00
Пиковый уровень 96.4 % Качество трека 100.0 % CRC копии B153EA5C Копирование... OK
Трек 6
Имя файла C:\_HDmusic\Классика\Radio Classic Angels\Крутой Игорь - 06 - Moon River.wav
Длина предзазора 0:00:02.00
Пиковый уровень 98.7 % Качество трека 100.0 % CRC копии 40F4D8BA Копирование... OK
Трек 7
Имя файла C:\_HDmusic\Классика\Radio Classic Angels\Крутой Игорь - 07 - What A Wonderful World.wav
Длина предзазора 0:00:02.00
Пиковый уровень 98.7 % Качество трека 100.0 % CRC копии 58A72C80 Копирование... OK
Трек 8
Имя файла C:\_HDmusic\Классика\Radio Classic Angels\Крутой Игорь - 08 - Vois Sur Ton Chemin.wav
Длина предзазора 0:00:02.00
Пиковый уровень 98.7 % Качество трека 100.0 % CRC копии 1D5BE2FD Копирование... OK
Трек 9
Имя файла C:\_HDmusic\Классика\Radio Classic Angels\Крутой Игорь - 09 - Le Cose Che Sei Per Me.wav
Длина предзазора 0:00:02.00
Пиковый уровень 98.7 % Качество трека 100.0 % CRC копии A46E01A6 Копирование... OK
Трек 10
Имя файла C:\_HDmusic\Классика\Radio Classic Angels\Крутой Игорь - 10 - Air Suite.wav
Длина предзазора 0:00:02.00
Пиковый уровень 98.7 % Качество трека 100.0 % CRC копии A8234F74 Копирование... OK
Трек 11
Имя файла C:\_HDmusic\Классика\Radio Classic Angels\Крутой Игорь - 11 - Caruso.wav
Длина предзазора 0:00:02.00
Пиковый уровень 98.7 % Качество трека 100.0 % CRC копии 579F5358 Копирование... OK
Трек 12
Имя файла C:\_HDmusic\Классика\Radio Classic Angels\Крутой Игорь - 12 - Sacris Solemnis.wav
Длина предзазора 0:00:02.00
Пиковый уровень 98.7 % Качество трека 100.0 % CRC копии A8A0ACBA Копирование... OK
Ошибок не произошло
Конец отчёта

Содержание индексной карты (.CUE)

REM GENRE ChorusREM DATE 2011REM DISCID 8F09FC0CREM COMMENT "ExactAudioCopy v0.99pb3"PERFORMER "Крутой Игорь"TITLE "Radio Classic Angels"FILE "Крутой Игорь - 01 - Ave Maria.wav" WAVE TRACK 01 AUDIO TITLE "Ave Maria" PERFORMER "Крутой Игорь" INDEX 01 00:00:00 TRACK 02 AUDIO TITLE "Nella Аantasia" PERFORMER "Крутой Игорь" INDEX 00 03:56:64FILE "Крутой Игорь - 02 - Nella Аantasia.wav" WAVE INDEX 01 00:00:00 TRACK 03 AUDIO TITLE "Pie Jesu" PERFORMER "Крутой Игорь" INDEX 00 02:17:68FILE "Крутой Игорь - 03 - Pie Jesu.wav" WAVE INDEX 01 00:00:00 TRACK 04 AUDIO TITLE "Secret Love" PERFORMER "Крутой Игорь" INDEX 00 03:45:19FILE "Крутой Игорь - 04 - Secret Love.wav" WAVE INDEX 01 00:00:00 TRACK 05 AUDIO TITLE "La Сaliffa" PERFORMER "Крутой Игорь" INDEX 00 02:45:30FILE "Крутой Игорь - 05 - La Сaliffa.wav" WAVE INDEX 01 00:00:00 TRACK 06 AUDIO TITLE "Moon River" PERFORMER "Крутой Игорь" INDEX 00 02:38:47FILE "Крутой Игорь - 06 - Moon River.wav" WAVE INDEX 01 00:00:00 TRACK 07 AUDIO TITLE "What A Wonderful World" PERFORMER "Крутой Игорь" INDEX 00 03:23:43FILE "Крутой Игорь - 07 - What A Wonderful World.wav" WAVE INDEX 01 00:00:00 TRACK 08 AUDIO TITLE "Vois Sur Ton Chemin" PERFORMER "Крутой Игорь" INDEX 00 03:16:01FILE "Крутой Игорь - 08 - Vois Sur Ton Chemin.wav" WAVE INDEX 01 00:00:00 TRACK 09 AUDIO TITLE "Le Cose Che Sei Per Me" PERFORMER "Крутой Игорь" INDEX 00 02:19:70FILE "Крутой Игорь - 09 - Le Cose Che Sei Per Me.wav" WAVE INDEX 01 00:00:00 TRACK 10 AUDIO TITLE "Air Suite" PERFORMER "Крутой Игорь" INDEX 00 03:29:68FILE "Крутой Игорь - 10 - Air Suite.wav" WAVE INDEX 01 00:00:00 TRACK 11 AUDIO TITLE "Caruso" PERFORMER "Крутой Игорь" INDEX 00 05:27:48FILE "Крутой Игорь - 11 - Caruso.wav" WAVE INDEX 01 00:00:00 TRACK 12 AUDIO TITLE "Sacris Solemnis" PERFORMER "Крутой Игорь" INDEX 00 04:39:71FILE "Крутой Игорь - 12 - Sacris Solemnis.wav" WAVE INDEX 01 00:00:00



Показать сообщения:    

Текущее время: 09-Дек 08:50

Часовой пояс: UTC + 3


Вы не можете начинать темы
Вы не можете отвечать на сообщения
Вы не можете редактировать свои сообщения
Вы не можете удалять свои сообщения
Вы не можете голосовать в опросах
Вы не можете прикреплять файлы к сообщениям
Вы не можете скачивать файлы