(Instrumental / Neoclassical Guitar) Alex Masi - In The Name Of Bach {2003 remaster} - 1999, FLAC (image+.cue), lossless


 

[Цитировать]

Alex Masi / In The Name Of Bach {2003 remaster}
Жанр: Instrumental / Neoclassical Guitar
Год выпуска диска: 1999
Издатель (лейбл): Lion Music
Номер по каталогу: LMC 064
Аудио кодек: FLAC
Тип рипа: image+.cue
Битрейт аудио: lossless
Продолжительность: 57:06
Треклист:
01. Toccata And Fugue In D Minor BWV 565
02. Prelude In Major From Well Tempered Clavier BWV 870
03. Allemande From French Suite In D Minor BWV 812
04. Toccata In E Minor BWV 565
05. Presto From Violin Sonata #1 In G Minor BWV 1001
06. Fugue In E Major From Well Tempered Clavier BWV 893
07. Contrapunctus #9 Alla Duodecima From Art Of Fugue BWV 1080
08. Siciliano In C Minor From Sonatas For Violin & Harpsichord BWV 101
09. Courante From English Suite In A Minor BWV 807
10. Invention F Major BWV 779
11. Akllemande From Violin Partita #2 In D Minor BWV 1004
12. Courante In E Minor BWV 996
13. Chromatic Fantasia BWV 903
14. Fugue BWV 903 *bonus track
15. Presto From Violin Sonata #1 In G Minor BWV 1001 (Acoustic Version) *bonus track

Отчёт EAC

Exact Audio Copy V1.0 beta 2 from 29. April 2011
EAC extraction logfile from 7. December 2011, 21:49
Alex Masi / In the Name of Bach
Used drive : Optiarc DVD RW AD-7200S Adapter: 1 ID: 0
Read mode : SecureUtilize accurate stream : YesDefeat audio cache : YesMake use of C2 pointers : No
Read offset correction : 48Overread into Lead-In and Lead-Out : NoFill up missing offset samples with silence : YesDelete leading and trailing silent blocks : NoNull samples used in CRC calculations : NoUsed interface : Native Win32 interface for Win NT & 2000
Used output format : Internal WAV RoutinesSample format : 44.100 Hz; 16 Bit; Stereo
TOC of the extracted CD
Track | Start | Length | Start sector | End sector --------------------------------------------------------- 1 | 0:00.00 | 9:26.35 | 0 | 42484 2 | 9:26.35 | 0:56.03 | 42485 | 46687 3 | 10:22.38 | 3:29.52 | 46688 | 62414 4 | 13:52.15 | 7:56.02 | 62415 | 98116 5 | 21:48.17 | 2:32.47 | 98117 | 109563 6 | 24:20.64 | 4:34.20 | 109564 | 130133 7 | 28:55.09 | 2:13.11 | 130134 | 140119 8 | 31:08.20 | 3:53.05 | 140120 | 157599 9 | 35:01.25 | 2:15.23 | 157600 | 167747 10 | 37:16.48 | 0:46.30 | 167748 | 171227 11 | 38:03.03 | 2:15.08 | 171228 | 181360 12 | 40:18.11 | 2:50.43 | 181361 | 194153 13 | 43:08.54 | 6:55.74 | 194154 | 225352 14 | 50:04.53 | 4:14.28 | 225353 | 244430 15 | 54:19.06 | 2:47.31 | 244431 | 256986
Range status and errors
Selected range
Filename C:\Users\axel\Desktop\wav\Alex Masi - In The Name Of Bach.wav
Peak level 97.9 % Extraction speed 4.0 X Range quality 100.0 % Copy CRC C756A12A Copy OK
No errors occurred
AccurateRip summary
Track 1 not present in databaseTrack 2 not present in databaseTrack 3 not present in databaseTrack 4 not present in databaseTrack 5 not present in databaseTrack 6 not present in databaseTrack 7 not present in databaseTrack 8 not present in databaseTrack 9 not present in databaseTrack 10 not present in databaseTrack 11 not present in databaseTrack 12 not present in databaseTrack 13 not present in databaseTrack 14 not present in databaseTrack 15 not present in database
None of the tracks are present in the AccurateRip database
End of status report



Показать сообщения:    

Текущее время: 07-Дек 13:41

Часовой пояс: UTC + 3


Вы не можете начинать темы
Вы не можете отвечать на сообщения
Вы не можете редактировать свои сообщения
Вы не можете удалять свои сообщения
Вы не можете голосовать в опросах
Вы не можете прикреплять файлы к сообщениям
Вы не можете скачивать файлы