(Instrumental / Classical) Bond - Discography (8 Releases) 2000-2011 [FLAC (tracks+.cue) lossless]


 

[Цитировать]

Bond - Discography- -Жанр: Instrumental / Classical || Страна: UK || Аудио кодек: FLAC || Тип рипа: tracks+.cue || Битрейт аудио: lossless || Источник: what.cd-Albums:

2000 - Born

01 - Quixote (04:44)
02 - Winter (05:43)
03 - Victory (04:41)
04 - Oceanic (06:43)
05 - Kismet (05:13)
06 - Korobushka (04:49)
07 - Alexander The Great (02:58)
08 - Duel (04:20)
09 - Bella Donna (03:16)
10 - The 1812 (06:37)
11 - Dalalai (04:06)
12 - Hymn (04:50)
13 - Victory (Mike Batt Mix) (03:26)

LOG

Exact Audio Copy V0.99 prebeta 4 from 23. January 2008
EAC extraction logfile from 6. May 2009, 2:33
Bond / Born
Used drive : ATAPI DVD A DH20A4P Adapter: 0 ID: 0
Read mode : SecureUtilize accurate stream : YesDefeat audio cache : YesMake use of C2 pointers : No
Read offset correction : 6Overread into Lead-In and Lead-Out : NoFill up missing offset samples with silence : YesDelete leading and trailing silent blocks : NoNull samples used in CRC calculations : YesUsed interface : Native Win32 interface for Win NT & 2000Gap handling : Appended to previous track
Used output format : User Defined EncoderSelected bitrate : 128 kBit/sQuality : HighAdd ID3 tag : NoCommand line compressor : C:\Program Files (x86)\Exact Audio Copy\FLAC\FLAC.EXEAdditional command line options : -V -8 -T "artist=%a" -T "title=%t" -T "album=%g" -T "date=%y" -T "tracknumber=%n" -T "genre=%m" %s
TOC of the extracted CD
Track | Start | Length | Start sector | End sector --------------------------------------------------------- 1 | 0:00.00 | 4:44.20 | 0 | 21319 2 | 4:44.20 | 5:42.50 | 21320 | 47019 3 | 10:26.70 | 4:40.55 | 47020 | 68074 4 | 15:07.50 | 6:42.40 | 68075 | 98264 5 | 21:50.15 | 5:12.65 | 98265 | 121729 6 | 27:03.05 | 4:48.45 | 121730 | 143374 7 | 31:51.50 | 2:58.00 | 143375 | 156724 8 | 34:49.50 | 4:20.25 | 156725 | 176249 9 | 39:10.00 | 3:15.70 | 176250 | 190944 10 | 42:25.70 | 6:37.30 | 190945 | 220749 11 | 49:03.25 | 4:06.10 | 220750 | 239209 12 | 53:09.35 | 4:50.25 | 239210 | 260984 13 | 57:59.60 | 3:25.60 | 260985 | 276419
Track 1
Filename C:\FLAC Rips\Bond - 2001 - Born\01 - Quixote.wav
Pre-gap length 0:00:02.00
Peak level 97.7 % Track quality 99.9 % Test CRC DBE78680 Copy CRC DBE78680 Accurately ripped (confidence 39) [2F95C814] Copy OK
Track 2
Filename C:\FLAC Rips\Bond - 2001 - Born\02 - Winter.wav
Peak level 97.7 % Track quality 99.9 % Test CRC FAEAD123 Copy CRC FAEAD123 Accurately ripped (confidence 39) [A601F34F] Copy OK
Track 3
Filename C:\FLAC Rips\Bond - 2001 - Born\03 - Victory.wav
Peak level 99.1 % Track quality 100.0 % Test CRC 5F34A2F9 Copy CRC 5F34A2F9 Accurately ripped (confidence 40) [80E29947] Copy OK
Track 4
Filename C:\FLAC Rips\Bond - 2001 - Born\04 - Oceanic.wav
Peak level 97.7 % Track quality 100.0 % Test CRC BE345A34 Copy CRC BE345A34 Accurately ripped (confidence 40) [D041B645] Copy OK
Track 5
Filename C:\FLAC Rips\Bond - 2001 - Born\05 - Kismet.wav
Peak level 97.3 % Track quality 100.0 % Test CRC 017093EE Copy CRC 017093EE Accurately ripped (confidence 39) [7C820C25] Copy OK
Track 6
Filename C:\FLAC Rips\Bond - 2001 - Born\06 - Korobushka.wav
Peak level 97.7 % Track quality 100.0 % Test CRC BEA1BCDA Copy CRC BEA1BCDA Accurately ripped (confidence 40) [37454E40] Copy OK
Track 7
Filename C:\FLAC Rips\Bond - 2001 - Born\07 - Alexander The Great.wav
Peak level 97.7 % Track quality 99.9 % Test CRC 10EF82D2 Copy CRC 10EF82D2 Accurately ripped (confidence 39) [C49B520A] Copy OK
Track 8
Filename C:\FLAC Rips\Bond - 2001 - Born\08 - Duel.wav
Peak level 93.3 % Track quality 99.9 % Test CRC 904EB911 Copy CRC 904EB911 Accurately ripped (confidence 39) [47D3D0E0] Copy OK
Track 9
Filename C:\FLAC Rips\Bond - 2001 - Born\09 - Bella Donna.wav
Peak level 97.4 % Track quality 100.0 % Test CRC 4DE62F50 Copy CRC 4DE62F50 Accurately ripped (confidence 39) [9E3DEE30] Copy OK
Track 10
Filename C:\FLAC Rips\Bond - 2001 - Born\10 - The 1812.wav
Peak level 97.4 % Track quality 100.0 % Test CRC 36874D8F Copy CRC 36874D8F Accurately ripped (confidence 38) [49F2623E] Copy OK
Track 11
Filename C:\FLAC Rips\Bond - 2001 - Born\11 - Dalalai.wav
Peak level 97.7 % Track quality 100.0 % Test CRC 7B55B941 Copy CRC 7B55B941 Accurately ripped (confidence 38) [149D2C5B] Copy OK
Track 12
Filename C:\FLAC Rips\Bond - 2001 - Born\12 - Hymn.wav
Peak level 64.3 % Track quality 100.0 % Test CRC DAC8208B Copy CRC DAC8208B Accurately ripped (confidence 38) [18419B25] Copy OK
Track 13
Filename C:\FLAC Rips\Bond - 2001 - Born\13 - Victory (Mike Batt Mix).wav
Peak level 99.8 % Track quality 100.0 % Test CRC 9E46913F Copy CRC 9E46913F Accurately ripped (confidence 38) [AFE49923] Copy OK
All tracks accurately ripped
No errors occurred
End of status report

CUE

REM GENRE ClassicalREM DATE 2000REM DISCID B30E650DREM COMMENT "ExactAudioCopy v0.99pb4"PERFORMER "Bond"TITLE "Born"FILE "01 - Quixote.wav" WAVE TRACK 01 AUDIO TITLE "Quixote" PERFORMER "Bond" INDEX 01 00:00:00FILE "02 - Winter.wav" WAVE TRACK 02 AUDIO TITLE "Winter" PERFORMER "Bond" INDEX 01 00:00:00FILE "03 - Victory.wav" WAVE TRACK 03 AUDIO TITLE "Victory" PERFORMER "Bond" INDEX 01 00:00:00FILE "04 - Oceanic.wav" WAVE TRACK 04 AUDIO TITLE "Oceanic" PERFORMER "Bond" INDEX 01 00:00:00FILE "05 - Kismet.wav" WAVE TRACK 05 AUDIO TITLE "Kismet" PERFORMER "Bond" INDEX 01 00:00:00FILE "06 - Korobushka.wav" WAVE TRACK 06 AUDIO TITLE "Korobushka" PERFORMER "Bond" INDEX 01 00:00:00FILE "07 - Alexander The Great.wav" WAVE TRACK 07 AUDIO TITLE "Alexander The Great" PERFORMER "Bond" INDEX 01 00:00:00FILE "08 - Duel.wav" WAVE TRACK 08 AUDIO TITLE "Duel" PERFORMER "Bond" INDEX 01 00:00:00FILE "09 - Bella Donna.wav" WAVE TRACK 09 AUDIO TITLE "Bella Donna" PERFORMER "Bond" INDEX 01 00:00:00FILE "10 - The 1812.wav" WAVE TRACK 10 AUDIO TITLE "The 1812" PERFORMER "Bond" INDEX 01 00:00:00FILE "11 - Dalalai.wav" WAVE TRACK 11 AUDIO TITLE "Dalalai" PERFORMER "Bond" INDEX 01 00:00:00FILE "12 - Hymn.wav" WAVE TRACK 12 AUDIO TITLE "Hymn" PERFORMER "Bond" INDEX 01 00:00:00FILE "13 - Victory (Mike Batt Mix).wav" WAVE TRACK 13 AUDIO TITLE "Victory (Mike Batt Mix)" PERFORMER "Bond" INDEX 01 00:00:00

2001 - Born

01 - Quixote (04:45)
02 - Wintersun (03:23)
03 - Victory (04:42)
04 - Oceanic (06:43)
05 - Kismet (05:13)
06 - Korobushka (04:49)
07 - Alexander The Great (02:58)
08 - Duel (04:21)
09 - Bella Donna (03:15)
10 - The 1812 (06:38)
11 - Dalalai (04:06)
12 - Hymn (04:51)
13 - Victory (Mike Batt Mix) (03:26)
14 - Viva! (03:16)

LOG

Exact Audio Copy V1.0 beta 1 from 15. November 2010
EAC extraction logfile from 8. January 2011, 14:48
BOND / BORN
Used drive : HL-DT-STDVD-RAM GH22LS30 Adapter: 1 ID: 0
Read mode : SecureUtilize accurate stream : YesDefeat audio cache : YesMake use of C2 pointers : No
Read offset correction : 102Overread into Lead-In and Lead-Out : NoFill up missing offset samples with silence : YesDelete leading and trailing silent blocks : NoNull samples used in CRC calculations : YesUsed interface : Native Win32 interface for Win NT & 2000Gap handling : Appended to previous track
Used output format : User Defined EncoderSelected bitrate : 256 kBit/sQuality : HighAdd ID3 tag : NoCommand line compressor : C:\Program Files (x86)\Exact Audio Copy\Flac\flac.exeAdditional command line options : -8 -V -T "ARTIST=%a" -T "TITLE=%t" -T "ALBUM=%g" -T "DATE=%y" -T "TRACKNUMBER=%n" -T "TOTALTRACKS=%x" -T "GENRE=%m" -T "ALBUMARTIST=%v" -T "ALBUM ARTIST=%v" -T "COMMENT=EAC Secure Mode, Test & Copy, AccurateRip, FLAC -8" %s
TOC of the extracted CD
Track | Start | Length | Start sector | End sector --------------------------------------------------------- 1 | 0:00.00 | 4:44.72 | 0 | 21371 2 | 4:44.72 | 3:22.48 | 21372 | 36569 3 | 8:07.45 | 4:41.70 | 36570 | 57714 4 | 12:49.40 | 6:42.47 | 57715 | 87911 5 | 19:32.12 | 5:13.05 | 87912 | 111391 6 | 24:45.17 | 4:48.48 | 111392 | 133039 7 | 29:33.65 | 2:57.52 | 133040 | 146366 8 | 32:31.42 | 4:20.38 | 146367 | 165904 9 | 36:52.05 | 3:15.27 | 165905 | 180556 10 | 40:07.32 | 6:38.10 | 180557 | 210416 11 | 46:45.42 | 4:05.63 | 210417 | 228854 12 | 50:51.30 | 4:50.42 | 228855 | 250646 13 | 55:41.72 | 3:26.25 | 250647 | 266121 14 | 59:08.22 | 3:15.50 | 266122 | 280796
Track 1
Filename I:\Bond - Born (2001) {with Bonus Track} [FLAC]\01 - QUiXOTE.wav
Pre-gap length 0:00:02.00
Peak level 97.7 % Extraction speed 1.6 X Track quality 100.0 % Test CRC A89729B4 Copy CRC A89729B4 Accurately ripped (confidence 1) [59821271] Copy OK
Track 2
Filename I:\Bond - Born (2001) {with Bonus Track} [FLAC]\02 - WINTERSUN.wav
Peak level 100.0 % Extraction speed 1.7 X Track quality 100.0 % Test CRC 2DB0C35D Copy CRC 2DB0C35D Accurately ripped (confidence 1) [3DFE8865] Copy OK
Track 3
Filename I:\Bond - Born (2001) {with Bonus Track} [FLAC]\03 - VICTORY.wav
Peak level 99.1 % Extraction speed 1.8 X Track quality 99.9 % Test CRC 511EC7BC Copy CRC 511EC7BC Accurately ripped (confidence 1) [8AC8C0ED] Copy OK
Track 4
Filename I:\Bond - Born (2001) {with Bonus Track} [FLAC]\04 - OCEANIC.wav
Peak level 97.7 % Extraction speed 2.3 X Track quality 100.0 % Test CRC 63980284 Copy CRC 63980284 Accurately ripped (confidence 1) [040C2BA9] Copy OK
Track 5
Filename I:\Bond - Born (2001) {with Bonus Track} [FLAC]\05 - KISMET.wav
Peak level 97.3 % Extraction speed 2.5 X Track quality 100.0 % Test CRC F4F0DD98 Copy CRC F4F0DD98 Accurately ripped (confidence 1) [4E16FD1B] Copy OK
Track 6
Filename I:\Bond - Born (2001) {with Bonus Track} [FLAC]\06 - KOROBUSHKA.wav
Peak level 97.7 % Extraction speed 2.6 X Track quality 100.0 % Test CRC 8DF751C7 Copy CRC 8DF751C7 Accurately ripped (confidence 1) [2DBF2D79] Copy OK
Track 7
Filename I:\Bond - Born (2001) {with Bonus Track} [FLAC]\07 - ALEXANDER THE GREAT.wav
Peak level 97.7 % Extraction speed 2.5 X Track quality 100.0 % Test CRC 29ADD119 Copy CRC 29ADD119 Accurately ripped (confidence 1) [968F3CE3] Copy OK
Track 8
Filename I:\Bond - Born (2001) {with Bonus Track} [FLAC]\08 - DUEL.wav
Peak level 93.3 % Extraction speed 2.7 X Track quality 100.0 % Test CRC 821AB5F9 Copy CRC 821AB5F9 Accurately ripped (confidence 1) [BA034DC3] Copy OK
Track 9
Filename I:\Bond - Born (2001) {with Bonus Track} [FLAC]\09 - BELLA DONNA.wav
Peak level 97.4 % Extraction speed 2.7 X Track quality 100.0 % Test CRC E810A140 Copy CRC E810A140 Accurately ripped (confidence 1) [12C8A1C4] Copy OK
Track 10
Filename I:\Bond - Born (2001) {with Bonus Track} [FLAC]\10 - THE 1812.wav
Peak level 97.4 % Extraction speed 2.8 X Track quality 99.9 % Test CRC 0C19267B Copy CRC 0C19267B Accurately ripped (confidence 1) [428EC064] Copy OK
Track 11
Filename I:\Bond - Born (2001) {with Bonus Track} [FLAC]\11 - DALALAI.wav
Peak level 97.7 % Extraction speed 3.1 X Track quality 100.0 % Test CRC 5D595F0C Copy CRC 5D595F0C Accurately ripped (confidence 1) [34DCA92D] Copy OK
Track 12
Filename I:\Bond - Born (2001) {with Bonus Track} [FLAC]\12 - HYMN.wav
Peak level 64.3 % Extraction speed 2.9 X Track quality 99.9 % Test CRC 69DD3773 Copy CRC 69DD3773 Accurately ripped (confidence 1) [D6EC52D0] Copy OK
Track 13
Filename I:\Bond - Born (2001) {with Bonus Track} [FLAC]\13 - VICTORY (MIKE BATT MIX).wav
Peak level 99.8 % Extraction speed 3.2 X Track quality 100.0 % Test CRC 3001414D Copy CRC 3001414D Accurately ripped (confidence 1) [20D07B7E] Copy OK
Track 14
Filename I:\Bond - Born (2001) {with Bonus Track} [FLAC]\14 - VIVA!.wav
Peak level 88.3 % Extraction speed 3.2 X Track quality 100.0 % Test CRC BA3B4488 Copy CRC BA3B4488 Accurately ripped (confidence 1) [32F50FD3] Copy OK
All tracks accurately ripped
No errors occurred
End of status report
==== Log checksum BB26F05E3BA262AAE0FE4C32434918F5B8E1FB5E90F83D99C833A1B60A7567CB ====

CUE

REM GENRE ClassicalREM DATE 2001REM DISCID CB0E9F0EREM COMMENT "ExactAudioCopy v1.0b1"PERFORMER "Bond"TITLE "Born"FILE "01 - Quixote.wav" WAVE TRACK 01 AUDIO TITLE "Quixote" PERFORMER "Bond" INDEX 01 00:00:00FILE "02 - Wintersun.wav" WAVE TRACK 02 AUDIO TITLE "Wintersun" PERFORMER "Bond" INDEX 01 00:00:00FILE "03 - Victory.wav" WAVE TRACK 03 AUDIO TITLE "Victory" PERFORMER "Bond" INDEX 01 00:00:00FILE "04 - Oceanic.wav" WAVE TRACK 04 AUDIO TITLE "Oceanic" PERFORMER "Bond" INDEX 01 00:00:00FILE "05 - Kismet.wav" WAVE TRACK 05 AUDIO TITLE "Kismet" PERFORMER "Bond" INDEX 01 00:00:00FILE "06 - Korobushka.wav" WAVE TRACK 06 AUDIO TITLE "Korobushka" PERFORMER "Bond" INDEX 01 00:00:00FILE "07 - Alexander The Great.wav" WAVE TRACK 07 AUDIO TITLE "Alexander The Great" PERFORMER "Bond" INDEX 01 00:00:00FILE "08 - Duel.wav" WAVE TRACK 08 AUDIO TITLE "Duel" PERFORMER "Bond" INDEX 01 00:00:00FILE "09 - Bella Donna.wav" WAVE TRACK 09 AUDIO TITLE "Bella Donna" PERFORMER "Bond" INDEX 01 00:00:00FILE "10 - The 1812.wav" WAVE TRACK 10 AUDIO TITLE "The 1812" PERFORMER "Bond" INDEX 01 00:00:00FILE "11 - Dalalai.wav" WAVE TRACK 11 AUDIO TITLE "Dalalai" PERFORMER "Bond" INDEX 01 00:00:00FILE "12 - Hymn.wav" WAVE TRACK 12 AUDIO TITLE "Hymn" PERFORMER "Bond" INDEX 01 00:00:00FILE "13 - Victory (Mike Batt Mix).wav" WAVE TRACK 13 AUDIO TITLE "Victory (Mike Batt Mix)" PERFORMER "Bond" INDEX 01 00:00:00FILE "14 - Viva!.wav" WAVE TRACK 14 AUDIO TITLE "Viva!" PERFORMER "Bond" INDEX 01 00:00:00

2002 - Shine

01 - Allegretto (03:53)
02 - Shine (03:57)
03 - Fuego (02:59)
04 - Strange Paradise (04:29)
05 - Speed (03:40)
06 - Big Love Adagio (04:58)
07 - Kashmir (05:08)
08 - Gypsy Rhapsody (03:35)
09 - Libertango (03:43)
10 - Sahara (05:21)
11 - Ride (04:10)
12 - Space (04:56)
13 - Bond on Bond (03:02)

LOG

Exact Audio Copy V0.99 prebeta 4 from 23. January 2008
EAC extraction logfile from 6. May 2009, 1:37
Bond / Shine
Used drive : ATAPI DVD A DH20A4P Adapter: 0 ID: 0
Read mode : SecureUtilize accurate stream : YesDefeat audio cache : YesMake use of C2 pointers : No
Read offset correction : 6Overread into Lead-In and Lead-Out : NoFill up missing offset samples with silence : YesDelete leading and trailing silent blocks : NoNull samples used in CRC calculations : YesUsed interface : Native Win32 interface for Win NT & 2000Gap handling : Appended to previous track
Used output format : User Defined EncoderSelected bitrate : 128 kBit/sQuality : HighAdd ID3 tag : NoCommand line compressor : C:\Program Files (x86)\Exact Audio Copy\FLAC\FLAC.EXEAdditional command line options : -V -8 -T "artist=%a" -T "title=%t" -T "album=%g" -T "date=%y" -T "tracknumber=%n" -T "genre=%m" %s
TOC of the extracted CD
Track | Start | Length | Start sector | End sector --------------------------------------------------------- 1 | 0:00.00 | 3:53.27 | 0 | 17501 2 | 3:53.27 | 3:57.15 | 17502 | 35291 3 | 7:50.42 | 2:59.23 | 35292 | 48739 4 | 10:49.65 | 4:28.40 | 48740 | 68879 5 | 15:18.30 | 3:40.30 | 68880 | 85409 6 | 18:58.60 | 4:58.20 | 85410 | 107779 7 | 23:57.05 | 5:08.00 | 107780 | 130879 8 | 29:05.05 | 3:34.70 | 130880 | 146999 9 | 32:40.00 | 3:42.65 | 147000 | 163714 10 | 36:22.65 | 5:21.30 | 163715 | 187819 11 | 41:44.20 | 4:09.45 | 187820 | 206539 12 | 45:53.65 | 4:55.45 | 206540 | 228709 13 | 50:49.35 | 3:02.25 | 228710 | 242384
Track 1
Filename C:\FLAC Rips\Bond - 2002 - Shine\01 - Allegretto.wav
Pre-gap length 0:00:02.00
Peak level 99.1 % Track quality 100.0 % Test CRC FEAEEFD6 Copy CRC FEAEEFD6 Accurately ripped (confidence 34) [9DD03392] Copy OK
Track 2
Filename C:\FLAC Rips\Bond - 2002 - Shine\02 - Shine.wav
Peak level 92.8 % Track quality 100.0 % Test CRC 57A8990F Copy CRC 57A8990F Accurately ripped (confidence 33) [42D079D1] Copy OK
Track 3
Filename C:\FLAC Rips\Bond - 2002 - Shine\03 - Fuego.wav
Peak level 99.1 % Track quality 99.9 % Test CRC 12C19027 Copy CRC 12C19027 Accurately ripped (confidence 33) [FA63B5A5] Copy OK
Track 4
Filename C:\FLAC Rips\Bond - 2002 - Shine\04 - Strange Paradise.wav
Peak level 98.8 % Track quality 100.0 % Test CRC 6CDC2635 Copy CRC 6CDC2635 Accurately ripped (confidence 34) [B8B9B387] Copy OK
Track 5
Filename C:\FLAC Rips\Bond - 2002 - Shine\05 - Speed.wav
Pre-gap length 0:00:00.24
Peak level 99.1 % Track quality 100.0 % Test CRC 7EF3649E Copy CRC 7EF3649E Accurately ripped (confidence 33) [17A1E1D7] Copy OK
Track 6
Filename C:\FLAC Rips\Bond - 2002 - Shine\06 - Big Love Adagio.wav
Peak level 85.4 % Track quality 100.0 % Test CRC E6358DC3 Copy CRC E6358DC3 Accurately ripped (confidence 33) [67B3F65E] Copy OK
Track 7
Filename C:\FLAC Rips\Bond - 2002 - Shine\07 - Kashmir.wav
Peak level 99.1 % Track quality 100.0 % Test CRC EC56F8DB Copy CRC EC56F8DB Accurately ripped (confidence 32) [215FE038] Copy OK
Track 8
Filename C:\FLAC Rips\Bond - 2002 - Shine\08 - Gypsy Rhapsody.wav
Peak level 99.1 % Track quality 100.0 % Test CRC 5ECE08AB Copy CRC 5ECE08AB Accurately ripped (confidence 32) [9DE829A8] Copy OK
Track 9
Filename C:\FLAC Rips\Bond - 2002 - Shine\09 - Libertango.wav
Peak level 95.9 % Track quality 100.0 % Test CRC 434FBAED Copy CRC 434FBAED Accurately ripped (confidence 32) [9DAEB551] Copy OK
Track 10
Filename C:\FLAC Rips\Bond - 2002 - Shine\10 - Sahara.wav
Peak level 99.1 % Track quality 99.9 % Test CRC C8833782 Copy CRC C8833782 Accurately ripped (confidence 33) [A75665DD] Copy OK
Track 11
Filename C:\FLAC Rips\Bond - 2002 - Shine\11 - Ride.wav
Peak level 99.1 % Track quality 100.0 % Test CRC C18A8CB2 Copy CRC C18A8CB2 Accurately ripped (confidence 32) [A8AA470D] Copy OK
Track 12
Filename C:\FLAC Rips\Bond - 2002 - Shine\12 - Space.wav
Peak level 96.5 % Track quality 100.0 % Test CRC B6E6CB61 Copy CRC B6E6CB61 Accurately ripped (confidence 32) [7D6B8754] Copy OK
Track 13
Filename C:\FLAC Rips\Bond - 2002 - Shine\13 - Bond on Bond.wav
Pre-gap length 0:00:09.44
Peak level 89.1 % Track quality 100.0 % Test CRC 63AD0479 Copy CRC 63AD0479 Accurately ripped (confidence 31) [883FD994] Copy OK
All tracks accurately ripped
No errors occurred
End of status report

CUE

REM GENRE ClassicalREM DATE 2002REM DISCID A40C9F0DREM COMMENT "ExactAudioCopy v0.99pb4"PERFORMER "Bond"TITLE "Shine"FILE "01 - Allegretto.wav" WAVE TRACK 01 AUDIO TITLE "Allegretto" PERFORMER "Bond" INDEX 01 00:00:00FILE "02 - Shine.wav" WAVE TRACK 02 AUDIO TITLE "Shine" PERFORMER "Bond" INDEX 01 00:00:00FILE "03 - Fuego.wav" WAVE TRACK 03 AUDIO TITLE "Fuego" PERFORMER "Bond" INDEX 01 00:00:00FILE "04 - Strange Paradise.wav" WAVE TRACK 04 AUDIO TITLE "Strange Paradise" PERFORMER "Bond" INDEX 01 00:00:00 TRACK 05 AUDIO TITLE "Speed" PERFORMER "Bond" INDEX 00 04:28:22FILE "05 - Speed.wav" WAVE INDEX 01 00:00:00FILE "06 - Big Love Adagio.wav" WAVE TRACK 06 AUDIO TITLE "Big Love Adagio" PERFORMER "Bond" INDEX 01 00:00:00FILE "07 - Kashmir.wav" WAVE TRACK 07 AUDIO TITLE "Kashmir" PERFORMER "Bond" INDEX 01 00:00:00FILE "08 - Gypsy Rhapsody.wav" WAVE TRACK 08 AUDIO TITLE "Gypsy Rhapsody" PERFORMER "Bond" INDEX 01 00:00:00FILE "09 - Libertango.wav" WAVE TRACK 09 AUDIO TITLE "Libertango" PERFORMER "Bond" INDEX 01 00:00:00FILE "10 - Sahara.wav" WAVE TRACK 10 AUDIO TITLE "Sahara" PERFORMER "Bond" INDEX 01 00:00:00FILE "11 - Ride.wav" WAVE TRACK 11 AUDIO TITLE "Ride" PERFORMER "Bond" INDEX 01 00:00:00FILE "12 - Space.wav" WAVE TRACK 12 AUDIO TITLE "Space" PERFORMER "Bond" INDEX 01 00:00:00 TRACK 13 AUDIO TITLE "Bond on Bond" PERFORMER "Bond" INDEX 00 04:46:12FILE "13 - Bond on Bond.wav" WAVE INDEX 01 00:00:00

2004 - Classified

01 - Explosive (03:12)
02 - Samba (03:35)
03 - Midnight Garden (04:07)
04 - Fly Robin Fly (03:09)
05 - Scorchio (03:31)
06 - Lullaby (03:48)
07 - Hungarian (03:00)
08 - I'll Fly Away (03:10)
09 - Dream Star (04:38)
10 - Highly Strung (03:30)
11 - Adagio for Strings (04:24)
12 - Senorita (04:27)
13 - Explosive (03:10)

LOG

Exact Audio Copy V0.99 prebeta 4 from 23. January 2008
EAC extraction logfile from 6. May 2009, 3:16
Bond / Classified
Used drive : ATAPI DVD A DH20A4P Adapter: 0 ID: 0
Read mode : SecureUtilize accurate stream : YesDefeat audio cache : YesMake use of C2 pointers : No
Read offset correction : 6Overread into Lead-In and Lead-Out : NoFill up missing offset samples with silence : YesDelete leading and trailing silent blocks : NoNull samples used in CRC calculations : YesUsed interface : Native Win32 interface for Win NT & 2000Gap handling : Appended to previous track
Used output format : User Defined EncoderSelected bitrate : 128 kBit/sQuality : HighAdd ID3 tag : NoCommand line compressor : C:\Program Files (x86)\Exact Audio Copy\FLAC\FLAC.EXEAdditional command line options : -V -8 -T "artist=%a" -T "title=%t" -T "album=%g" -T "date=%y" -T "tracknumber=%n" -T "genre=%m" %s
TOC of the extracted CD
Track | Start | Length | Start sector | End sector --------------------------------------------------------- 1 | 0:00.00 | 3:11.45 | 0 | 14369 2 | 3:11.45 | 3:34.57 | 14370 | 30476 3 | 6:46.27 | 4:07.25 | 30477 | 49026 4 | 10:53.52 | 3:09.20 | 49027 | 63221 5 | 14:02.72 | 3:31.03 | 63222 | 79049 6 | 17:34.00 | 3:48.35 | 79050 | 96184 7 | 21:22.35 | 3:00.22 | 96185 | 109706 8 | 24:22.57 | 3:10.00 | 109707 | 123956 9 | 27:32.57 | 4:38.05 | 123957 | 144811 10 | 32:10.62 | 3:30.05 | 144812 | 160566 11 | 35:40.67 | 4:23.70 | 160567 | 180361 12 | 40:04.62 | 4:27.33 | 180362 | 200419 13 | 44:32.20 | 3:10.37 | 200420 | 214706
Track 1
Filename C:\FLAC Rips\Bond - 2004 - Classified\01 - Explosive.wav
Pre-gap length 0:00:02.00
Peak level 93.6 % Track quality 99.9 % Test CRC B5469E26 Copy CRC B5469E26 Accurately ripped (confidence 18) [ABB2C7A2] Copy OK
Track 2
Filename C:\FLAC Rips\Bond - 2004 - Classified\02 - Samba.wav
Pre-gap length 0:00:00.80
Peak level 93.6 % Track quality 100.0 % Test CRC 307FC024 Copy CRC 307FC024 Accurately ripped (confidence 18) [9282AD41] Copy OK
Track 3
Filename C:\FLAC Rips\Bond - 2004 - Classified\03 - Midnight Garden.wav
Pre-gap length 0:00:00.16
Peak level 93.6 % Track quality 100.0 % Test CRC 957A6A99 Copy CRC 957A6A99 Accurately ripped (confidence 19) [CDBCD420] Copy OK
Track 4
Filename C:\FLAC Rips\Bond - 2004 - Classified\04 - Fly Robin Fly.wav
Pre-gap length 0:00:00.20
Peak level 93.6 % Track quality 99.9 % Test CRC FDD86A7E Copy CRC FDD86A7E Accurately ripped (confidence 19) [CB447130] Copy OK
Track 5
Filename C:\FLAC Rips\Bond - 2004 - Classified\05 - Scorchio.wav
Pre-gap length 0:00:00.26
Peak level 100.0 % Track quality 100.0 % Test CRC 679AC2A6 Copy CRC 679AC2A6 Accurately ripped (confidence 19) [7625CC80] Copy OK
Track 6
Filename C:\FLAC Rips\Bond - 2004 - Classified\06 - Lullaby.wav
Pre-gap length 0:00:00.13
Peak level 93.6 % Track quality 99.9 % Test CRC AAA8AA3B Copy CRC AAA8AA3B Accurately ripped (confidence 19) [C8A3B6CF] Copy OK
Track 7
Filename C:\FLAC Rips\Bond - 2004 - Classified\07 - Hungarian.wav
Peak level 93.6 % Track quality 99.9 % Test CRC 76F97341 Copy CRC 76F97341 Accurately ripped (confidence 19) [99AA0AC3] Copy OK
Track 8
Filename C:\FLAC Rips\Bond - 2004 - Classified\08 - I'll Fly Away.wav
Pre-gap length 0:00:00.22
Peak level 93.6 % Track quality 100.0 % Test CRC F9DE99E9 Copy CRC F9DE99E9 Accurately ripped (confidence 19) [21CB8BB3] Copy OK
Track 9
Filename C:\FLAC Rips\Bond - 2004 - Classified\09 - Dream Star.wav
Pre-gap length 0:00:00.02
Peak level 93.6 % Track quality 100.0 % Test CRC 010CAC80 Copy CRC 010CAC80 Accurately ripped (confidence 19) [E119A23B] Copy OK
Track 10
Filename C:\FLAC Rips\Bond - 2004 - Classified\10 - Highly Strung.wav
Peak level 100.0 % Track quality 100.0 % Test CRC 230B2D12 Copy CRC 230B2D12 Accurately ripped (confidence 19) [E5BEE8F0] Copy OK
Track 11
Filename C:\FLAC Rips\Bond - 2004 - Classified\11 - Adagio for Strings.wav
Pre-gap length 0:00:00.66
Peak level 93.6 % Track quality 100.0 % Test CRC 3590822B Copy CRC 3590822B Accurately ripped (confidence 19) [768778FE] Copy OK
Track 12
Filename C:\FLAC Rips\Bond - 2004 - Classified\12 - Senorita.wav
Pre-gap length 0:00:00.73
Peak level 93.6 % Track quality 100.0 % Test CRC FC9C89B0 Copy CRC FC9C89B0 Accurately ripped (confidence 20) [93488591] Copy OK
Track 13
Filename C:\FLAC Rips\Bond - 2004 - Classified\13 - Explosive.wav
Peak level 93.6 % Track quality 100.0 % Test CRC C9BD12AF Copy CRC C9BD12AF Accurately ripped (confidence 19) [B60AF74D] Copy OK
All tracks accurately ripped
No errors occurred
End of status report

CUE

REM GENRE ClassicalREM DATE 2004REM DISCID AC0B2E0DREM COMMENT "ExactAudioCopy v0.99pb4"PERFORMER "Bond"TITLE "Classified"FILE "01 - Explosive.wav" WAVE TRACK 01 AUDIO TITLE "Explosive" PERFORMER "Bond" INDEX 01 00:00:00 TRACK 02 AUDIO TITLE "Samba" PERFORMER "Bond" INDEX 00 03:10:60FILE "02 - Samba.wav" WAVE INDEX 01 00:00:00 TRACK 03 AUDIO TITLE "Midnight Garden" PERFORMER "Bond" INDEX 00 03:34:45FILE "03 - Midnight Garden.wav" WAVE INDEX 01 00:00:00 TRACK 04 AUDIO TITLE "Fly Robin Fly" PERFORMER "Bond" INDEX 00 04:07:10FILE "04 - Fly Robin Fly.wav" WAVE INDEX 01 00:00:00 TRACK 05 AUDIO TITLE "Scorchio" PERFORMER "Bond" INDEX 00 03:09:00FILE "05 - Scorchio.wav" WAVE INDEX 01 00:00:00 TRACK 06 AUDIO TITLE "Lullaby" PERFORMER "Bond" INDEX 00 03:30:68FILE "06 - Lullaby.wav" WAVE INDEX 01 00:00:00FILE "07 - Hungarian.wav" WAVE TRACK 07 AUDIO TITLE "Hungarian" PERFORMER "Bond" INDEX 01 00:00:00 TRACK 08 AUDIO TITLE "I'll Fly Away" PERFORMER "Bond" INDEX 00 03:00:05FILE "08 - I'll Fly Away.wav" WAVE INDEX 01 00:00:00 TRACK 09 AUDIO TITLE "Dream Star" PERFORMER "Bond" INDEX 00 03:09:73FILE "09 - Dream Star.wav" WAVE INDEX 01 00:00:00FILE "10 - Highly Strung.wav" WAVE TRACK 10 AUDIO TITLE "Highly Strung" PERFORMER "Bond" INDEX 01 00:00:00 TRACK 11 AUDIO TITLE "Adagio for Strings" PERFORMER "Bond" INDEX 00 03:29:30FILE "11 - Adagio for Strings.wav" WAVE INDEX 01 00:00:00 TRACK 12 AUDIO TITLE "Senorita" PERFORMER "Bond" INDEX 00 04:23:15FILE "12 - Senorita.wav" WAVE INDEX 01 00:00:00FILE "13 - Explosive.wav" WAVE TRACK 13 AUDIO TITLE "Explosive" PERFORMER "Bond" INDEX 01 00:00:00

2011 - Play

01 - Diablo (03:59)
02 - Jai Ho (03:38)
03 - Elysium (04:07)
04 - Pump It (03:41)
05 - Beatroot (02:39)
06 - Last Time (aka Bittersweet) (03:44)
07 - Summer (03:17)
08 - Winter (04:03)
09 - Apasionada (03:42)
10 - West With The Night (03:10)
11 - Road To Samarkand (03:26)
12 - Victory 10 (03:11)
13 - Diablo (04:25)
14 - Bond Goes Gaga (03:54)

LOG

Exact Audio Copy V1.0 beta 3 from 29. August 2011
EAC extraction logfile from 27. October 2011, 16:46
bond / Play
Used drive : HL-DT-STDVDRAM GH22NS70 Adapter: 0 ID: 2
Read mode : SecureUtilize accurate stream : YesDefeat audio cache : YesMake use of C2 pointers : No
Read offset correction : 667Overread into Lead-In and Lead-Out : NoFill up missing offset samples with silence : YesDelete leading and trailing silent blocks : NoNull samples used in CRC calculations : YesUsed interface : Native Win32 interface for Win NT & 2000Gap handling : Appended to previous track
Used output format : User Defined EncoderSelected bitrate : 128 kBit/sQuality : HighAdd ID3 tag : YesCommand line compressor : C:\Program Files (x86)\FLAC\flac.exeAdditional command line options : -8 -V -T "ARTIST=%artist%" -T "TITLE=%title%" -T "ALBUM=%albumtitle%" -T "DATE=%year%" -T "TRACKNUMBER=%tracknr%" -T "GENRE=%genre%" -T "PERFORMER=%albuminterpret%" -T "COMPOSER=%composer%" %haslyrics%--tag-from-file=LYRICS="%lyricsfile%"%haslyrics% -T "ALBUMARTIST=%albumartist%" -T "DISCNUMBER=%cdnumber%" -T "TOTALDISCS=%totalcds%" -T "TOTALTRACKS=%numtracks%" -T "COMMENT=%comment%" %source% -o %dest%
TOC of the extracted CD
Track | Start | Length | Start sector | End sector --------------------------------------------------------- 1 | 0:00.00 | 3:58.39 | 0 | 17888 2 | 3:58.39 | 3:37.64 | 17889 | 34227 3 | 7:36.28 | 4:07.34 | 34228 | 52786 4 | 11:43.62 | 3:41.10 | 52787 | 69371 5 | 15:24.72 | 2:39.20 | 69372 | 81316 6 | 18:04.17 | 3:43.45 | 81317 | 98086 7 | 21:47.62 | 3:16.46 | 98087 | 112832 8 | 25:04.33 | 4:02.45 | 112833 | 131027 9 | 29:07.03 | 3:42.24 | 131028 | 147701 10 | 32:49.27 | 3:09.68 | 147702 | 161944 11 | 35:59.20 | 3:26.30 | 161945 | 177424 12 | 39:25.50 | 3:10.59 | 177425 | 191733 13 | 42:36.34 | 4:25.27 | 191734 | 211635 14 | 47:01.61 | 3:54.16 | 211636 | 229201
Track 1
Filename D:\New Music\bond - Play [FLAC]\01 - Diablo.wav
Pre-gap length 0:00:02.00
Peak level 100.0 % Extraction speed 4.4 X Track quality 100.0 % Test CRC A0954E7E Copy CRC A0954E7E Track not present in AccurateRip database Copy OK
Track 2
Filename D:\New Music\bond - Play [FLAC]\02 - Jai Ho.wav
Peak level 100.0 % Extraction speed 4.8 X Track quality 100.0 % Test CRC B7F1A987 Copy CRC B7F1A987 Track not present in AccurateRip database Copy OK
Track 3
Filename D:\New Music\bond - Play [FLAC]\03 - Elysium.wav
Peak level 99.8 % Extraction speed 5.3 X Track quality 100.0 % Test CRC E994246C Copy CRC E994246C Track not present in AccurateRip database Copy OK
Track 4
Filename D:\New Music\bond - Play [FLAC]\04 - Pump It.wav
Peak level 100.0 % Extraction speed 5.5 X Track quality 100.0 % Test CRC C867854E Copy CRC C867854E Track not present in AccurateRip database Copy OK
Track 5
Filename D:\New Music\bond - Play [FLAC]\05 - Beatroot.wav
Peak level 100.0 % Extraction speed 5.4 X Track quality 100.0 % Test CRC EA1FD187 Copy CRC EA1FD187 Track not present in AccurateRip database Copy OK
Track 6
Filename D:\New Music\bond - Play [FLAC]\06 - Last Time (aka Bittersweet).wav
Peak level 100.0 % Extraction speed 6.1 X Track quality 100.0 % Test CRC 282E03D2 Copy CRC 282E03D2 Track not present in AccurateRip database Copy OK
Track 7
Filename D:\New Music\bond - Play [FLAC]\07 - Summer.wav
Peak level 100.0 % Extraction speed 6.3 X Track quality 100.0 % Test CRC 4EA7CD7E Copy CRC 4EA7CD7E Track not present in AccurateRip database Copy OK
Track 8
Filename D:\New Music\bond - Play [FLAC]\08 - Winter.wav
Peak level 100.0 % Extraction speed 6.6 X Track quality 100.0 % Test CRC D615D34C Copy CRC D615D34C Track not present in AccurateRip database Copy OK
Track 9
Filename D:\New Music\bond - Play [FLAC]\09 - Apasionada.wav
Peak level 89.1 % Extraction speed 6.8 X Track quality 100.0 % Test CRC A7466417 Copy CRC A7466417 Track not present in AccurateRip database Copy OK
Track 10
Filename D:\New Music\bond - Play [FLAC]\10 - West With The Night.wav
Peak level 99.9 % Extraction speed 5.5 X Track quality 99.9 % Test CRC C6724738 Copy CRC C6724738 Track not present in AccurateRip database Copy OK
Track 11
Filename D:\New Music\bond - Play [FLAC]\11 - Road To Samarkand.wav
Peak level 100.0 % Extraction speed 7.0 X Track quality 100.0 % Test CRC 79022A8B Copy CRC 79022A8B Track not present in AccurateRip database Copy OK
Track 12
Filename D:\New Music\bond - Play [FLAC]\12 - Victory 10.wav
Peak level 100.0 % Extraction speed 7.1 X Track quality 100.0 % Test CRC 03222ACC Copy CRC 03222ACC Track not present in AccurateRip database Copy OK
Track 13
Filename D:\New Music\bond - Play [FLAC]\13 - Diablo.wav
Peak level 100.0 % Extraction speed 8.0 X Track quality 100.0 % Test CRC 70E7B5C6 Copy CRC 70E7B5C6 Track not present in AccurateRip database Copy OK
Track 14
Filename D:\New Music\bond - Play [FLAC]\14 - Bond Goes Gaga-Born This Way,Poker Face,Bad Romance,Judas [x].wav
Pre-gap length 0:00:02.00
Peak level 100.0 % Extraction speed 8.0 X Track quality 100.0 % Test CRC 9F59BAAA Copy CRC 9F59BAAA Track not present in AccurateRip database Copy OK
None of the tracks are present in the AccurateRip database
No errors occurred
End of status report
---- CUETools DB Plugin V2.1.3
[CTDB TOCID: 8MdWd8jX8cuz4385O_2wYus7KvE-] found, Submit result: already submitted[33802062] (1/1) Accurately ripped
==== Log checksum 0358D6729992E8C78A2062B767FC989F95402D9ADB92AE0AC4BCEE4DFC1F930C ====

CUE

REM GENRE PopREM DATE 2011REM DISCID C40BF00EREM COMMENT "ExactAudioCopy v1.0b3"CATALOG 0602527815183PERFORMER "Bond"TITLE "Play"FILE "01 - Diablo.wav" WAVE TRACK 01 AUDIO TITLE "Diablo" PERFORMER "Bond" ISRC GBG2R1000001 INDEX 01 00:00:00FILE "02 - Jai Ho.wav" WAVE TRACK 02 AUDIO TITLE "Jai Ho" PERFORMER "Bond" ISRC GBG2R1000002 INDEX 01 00:00:00FILE "03 - Elysium.wav" WAVE TRACK 03 AUDIO TITLE "Elysium" PERFORMER "Bond" ISRC GBG2R1000003 INDEX 01 00:00:00FILE "04 - Pump It.wav" WAVE TRACK 04 AUDIO TITLE "Pump It" PERFORMER "Bond" ISRC GBG2R1000004 INDEX 01 00:00:00FILE "05 - Beatroot.wav" WAVE TRACK 05 AUDIO TITLE "Beatroot" PERFORMER "Bond" ISRC GBG2R1000005 INDEX 01 00:00:00FILE "06 - Last Time (aka Bittersweet).wav" WAVE TRACK 06 AUDIO TITLE "Last Time (aka Bittersweet)" PERFORMER "Bond" ISRC GBG2R1000006 INDEX 01 00:00:00FILE "07 - Summer.wav" WAVE TRACK 07 AUDIO TITLE "Summer" PERFORMER "Bond" ISRC GBG2R1000007 INDEX 01 00:00:00FILE "08 - Winter.wav" WAVE TRACK 08 AUDIO TITLE "Winter" PERFORMER "Bond" ISRC GBG2R1000008 INDEX 01 00:00:00FILE "09 - Apasionada.wav" WAVE TRACK 09 AUDIO TITLE "Apasionada" PERFORMER "Bond" ISRC GBG2R1000009 INDEX 01 00:00:00FILE "10 - West With The Night.wav" WAVE TRACK 10 AUDIO TITLE "West With The Night" PERFORMER "Bond" ISRC GBG2R1000010 INDEX 01 00:00:00FILE "11 - Road To Samarkand.wav" WAVE TRACK 11 AUDIO TITLE "Road To Samarkand" PERFORMER "Bond" ISRC GBG2R1000011 INDEX 01 00:00:00FILE "12 - Victory 10.wav" WAVE TRACK 12 AUDIO TITLE "Victory 10" PERFORMER "Bond" ISRC GBG2R1000012 INDEX 01 00:00:00FILE "13 - Diablo.wav" WAVE TRACK 13 AUDIO TITLE "Diablo" PERFORMER "Bond" ISRC GBG2R1000013 INDEX 01 00:00:00 TRACK 14 AUDIO TITLE "Bond Goes Gaga" PERFORMER "Bond" ISRC GBG2R1100014 INDEX 00 04:23:27FILE "14 - Bond Goes Gaga.wav" WAVE INDEX 01 00:00:00
Compilations:

2003 - Fab Field's Mix

01 - Jingle Bell Rock (03:07)
02 - Atlanta (03:56)
03 - Victory (Sharp Boys House Mix) (03:55)
04 - Innocent (03:18)
05 - Ride (04:10)
06 - Viva! (Del Underground Mix) (05:41)

LOG

Exact Audio Copy V0.99 prebeta 5 from 4. May 2009
EAC extraction logfile from 6. May 2010, 14:36
Bond / Fab Field's Mix
Used drive : TSSTcorpCDDVDW SH-S223F Adapter: 3 ID: 0
Read mode : SecureUtilize accurate stream : YesDefeat audio cache : YesMake use of C2 pointers : No
Read offset correction : 6Overread into Lead-In and Lead-Out : NoFill up missing offset samples with silence : YesDelete leading and trailing silent blocks : NoNull samples used in CRC calculations : YesUsed interface : Native Win32 interface for Win NT & 2000Gap handling : Appended to previous track
Used output format : User Defined EncoderSelected bitrate : 1024 kBit/sQuality : HighAdd ID3 tag : NoCommand line compressor : D:\Program Files\Exact Audio Copy\FLAC\FLAC.EXEAdditional command line options : -6 -V -T "ARTIST=%a" -T "TITLE=%t" -T "ALBUM=%g" -T "DATE=%y" -T "TRACKNUMBER=%n" -T "GENRE=%m" -T "COMMENT=%e" %s -o %d
TOC of the extracted CD
Track | Start | Length | Start sector | End sector --------------------------------------------------------- 1 | 0:00.00 | 3:07.02 | 0 | 14026 2 | 3:07.02 | 3:56.22 | 14027 | 31748 3 | 7:03.24 | 3:55.23 | 31749 | 49396 4 | 10:58.47 | 3:18.29 | 49397 | 64275 5 | 14:17.01 | 4:10.15 | 64276 | 83040 6 | 18:27.16 | 5:40.58 | 83041 | 108598 7 | 26:39.74 | 22:05.17 | 119999 | 219390
Track 1
Filename D:\EACrips\Jingle Bell Rock.wav
Pre-gap length 0:00:02.00
Peak level 95.1 % Track quality 100.0 % Test CRC 7B6D631F Copy CRC 7B6D631F Accurately ripped (confidence 1) [BC1C02C8] Copy OK
Track 2
Filename D:\EACrips\Atlanta.wav
Pre-gap length 0:00:02.45
Peak level 97.0 % Track quality 100.0 % Test CRC A7C9DC96 Copy CRC A7C9DC96 Accurately ripped (confidence 1) [EC91C5FA] Copy OK
Track 3
Filename D:\EACrips\Victory (Sharp Boys House Mix).wav
Pre-gap length 0:00:03.28
Peak level 95.1 % Track quality 100.0 % Test CRC F9C35DBB Copy CRC F9C35DBB Accurately ripped (confidence 1) [92FB53B8] Copy OK
Track 4
Filename D:\EACrips\Innocent.wav
Pre-gap length 0:00:02.90
Peak level 99.8 % Track quality 100.0 % Test CRC 4212FE38 Copy CRC 4212FE38 Accurately ripped (confidence 1) [27EADF23] Copy OK
Track 5
Filename D:\EACrips\Ride.wav
Pre-gap length 0:00:02.98
Peak level 99.6 % Track quality 100.0 % Test CRC E5EB0D42 Copy CRC E5EB0D42 Accurately ripped (confidence 1) [1E3D524E] Copy OK
Track 6
Filename D:\EACrips\Viva! (Del Underground Mix).wav
Pre-gap length 0:00:02.74
Peak level 90.2 % Track quality 100.0 % Test CRC D1DD8B6A Copy CRC D1DD8B6A Accurately ripped (confidence 1) [3306EBE5] Copy OK
All tracks accurately ripped
No errors occurred
End of status report

CUE

REM GENRE ClassicalREM DATE 2003REM DISCID 540B6D07REM COMMENT "ExactAudioCopy v0.99pb5"PERFORMER "Bond"TITLE "Fab Field's Mix"FILE "01 - Jingle Bell Rock.wav" WAVE TRACK 01 AUDIO TITLE "Jingle Bell Rock" PERFORMER "Bond" INDEX 01 00:00:00 TRACK 02 AUDIO TITLE "Atlanta" PERFORMER "Bond" INDEX 00 03:04:43FILE "02 - Atlanta.wav" WAVE INDEX 01 00:00:00 TRACK 03 AUDIO TITLE "Victory (Sharp Boys House Mix)" PERFORMER "Bond" INDEX 00 03:53:01FILE "03 - Victory (Sharp Boys House Mix).wav" WAVE INDEX 01 00:00:00 TRACK 04 AUDIO TITLE "Innocent" PERFORMER "Bond" INDEX 00 03:52:30FILE "04 - Innocent.wav" WAVE INDEX 01 00:00:00 TRACK 05 AUDIO TITLE "Ride" PERFORMER "Bond" INDEX 00 03:15:30FILE "05 - Ride.wav" WAVE INDEX 01 00:00:00 TRACK 06 AUDIO TITLE "Viva! (Del Underground Mix)" PERFORMER "Bond" INDEX 00 04:07:34FILE "06 - Viva! (Del Underground Mix).wav" WAVE INDEX 01 00:00:00

2003 - Remixed

01 - Viva (Onion Mix) (03:18)
02 - Victory (Sharp Boys Wild String Edit) (03:55)
03 - Wintersun (Bobby D'Ambrosio Mix) (03:30)
04 - Speed (Crash Club Mix - Radio Edit) (03:09)
05 - Fuego (Caliente Mix) (03:38)
06 - Homecoming (04:23)
07 - Atlanta (03:57)
08 - Shine (Dubshakra Mix) (03:59)
09 - Time (04:29)
10 - Duel (Hectic Mix) (03:27)
11 - Bond on Bond (Hectic Mix) (02:38)
12 - Jingle Bell Rock (Pussy Galore Mix) (03:49)

LOG

Exact Audio Copy V0.99 prebeta 4 from 23. January 2008
EAC extraction logfile from 2. March 2009, 23:58
Bond / Remixed
Used drive : TSSTcorpDVD-ROM TS-H352C Adapter: 1 ID: 1
Read mode : SecureUtilize accurate stream : YesDefeat audio cache : YesMake use of C2 pointers : No
Read offset correction : 6Overread into Lead-In and Lead-Out : NoFill up missing offset samples with silence : YesDelete leading and trailing silent blocks : NoNull samples used in CRC calculations : YesUsed interface : Installed external ASPI interfaceGap handling : Appended to previous track
Used output format : User Defined EncoderSelected bitrate : 192 kBit/sQuality : HighAdd ID3 tag : NoCommand line compressor : C:\Program Files\FLAC\flac.exeAdditional command line options : -8 -A tukey(0.25) -A gauss(0.1875) -b 4096 -V -T "artist=%a" -T "title=%t" -T "album=%g" -T "date=%y" -T "tracknumber=%n" -T "genre=%m" %s --sector-align
TOC of the extracted CD
Track | Start | Length | Start sector | End sector --------------------------------------------------------- 1 | 0:00.00 | 3:18.07 | 0 | 14856 2 | 3:18.07 | 3:55.07 | 14857 | 32488 3 | 7:13.14 | 3:29.56 | 32489 | 48219 4 | 10:42.70 | 3:08.55 | 48220 | 62374 5 | 13:51.50 | 3:38.27 | 62375 | 78751 6 | 17:30.02 | 4:22.53 | 78752 | 98454 7 | 21:52.55 | 3:56.43 | 98455 | 116197 8 | 25:49.23 | 3:59.02 | 116198 | 134124 9 | 29:48.25 | 4:28.70 | 134125 | 154294 10 | 34:17.20 | 3:26.49 | 154295 | 169793 11 | 37:43.69 | 2:37.43 | 169794 | 181611 12 | 40:21.37 | 3:49.20 | 181612 | 198806 13 | 46:42.57 | 23:13.69 | 210207 | 314750
Track 1
Filename N:\Music\Bond - Remixed\01 - Viva (Onion Mix).wav
Pre-gap length 0:00:02.00
Peak level 92.8 % Track quality 100.0 % Test CRC 090C0D96 Copy CRC 090C0D96 Copy OK
Track 2
Filename N:\Music\Bond - Remixed\02 - Victory (Sharp Boys Wild String Edit).wav
Pre-gap length 0:00:02.58
Peak level 95.1 % Track quality 99.9 % Test CRC 19EDA3A9 Copy CRC 19EDA3A9 Copy OK
Track 3
Filename N:\Music\Bond - Remixed\03 - Wintersun (Bobby D'Ambrosio Mix).wav
Pre-gap length 0:00:02.69
Peak level 92.8 % Track quality 100.0 % Test CRC 6F837B34 Copy CRC 6F837B34 Copy OK
Track 4
Filename N:\Music\Bond - Remixed\04 - Speed (Crash Club Mix -- Radio Edit).wav
Pre-gap length 0:00:02.24
Peak level 95.1 % Track quality 100.0 % Test CRC F8E0346E Copy CRC F8E0346E Copy OK
Track 5
Filename N:\Music\Bond - Remixed\05 - Fuego (Caliente Mix).wav
Pre-gap length 0:00:02.48
Peak level 95.1 % Track quality 100.0 % Test CRC 3F8621DC Copy CRC 3F8621DC Copy OK
Track 6
Filename N:\Music\Bond - Remixed\06 - Homecoming.wav
Pre-gap length 0:00:02.41
Peak level 95.1 % Track quality 100.0 % Test CRC B8A2A327 Copy CRC B8A2A327 Copy OK
Track 7
Filename N:\Music\Bond - Remixed\07 - Atlanta.wav
Pre-gap length 0:00:02.94
Peak level 97.0 % Track quality 100.0 % Test CRC 709E92D2 Copy CRC 709E92D2 Copy OK
Track 8
Filename N:\Music\Bond - Remixed\08 - Shine (Dubshakra Mix).wav
Pre-gap length 0:00:03.48
Peak level 90.2 % Track quality 100.0 % Test CRC B11CA0F6 Copy CRC B11CA0F6 Copy OK
Track 9
Filename N:\Music\Bond - Remixed\09 - Time.wav
Pre-gap length 0:00:02.74
Peak level 97.0 % Track quality 100.0 % Test CRC 135510B3 Copy CRC 135510B3 Copy OK
Track 10
Filename N:\Music\Bond - Remixed\10 - Duel (Hectic Mix).wav
Pre-gap length 0:00:02.05
Peak level 97.8 % Track quality 100.0 % Test CRC 256A57DB Copy CRC 256A57DB Copy OK
Track 11
Filename N:\Music\Bond - Remixed\11 - Bond on Bond (Hectic Mix).wav
Pre-gap length 0:00:02.60
Peak level 97.0 % Track quality 100.0 % Test CRC 48640A95 Copy CRC 48640A95 Copy OK
Track 12
Filename N:\Music\Bond - Remixed\12 - Jingle Bell Rock (Pussy Galore Mix).wav
Pre-gap length 0:00:02.54
Peak level 97.7 % Track quality 100.0 % Test CRC BEE6C2A7 Copy CRC BEE6C2A7 Copy OK
No errors occurred
End of status report

CUE

REM GENRE ClassicalREM DATE 2003REM DISCID 9210640DREM COMMENT "ExactAudioCopy v0.99pb4"PERFORMER "Bond"TITLE "Remixed"FILE "01 - Viva (Onion Mix).wav" WAVE TRACK 01 AUDIO TITLE "Viva (Onion Mix)" PERFORMER "Bond" INDEX 01 00:00:00 TRACK 02 AUDIO TITLE "Victory (Sharp Boys Wild String Edit)" PERFORMER "Bond" INDEX 00 03:15:38FILE "02 - Victory (Sharp Boys Wild String Edit).wav" WAVE INDEX 01 00:00:00 TRACK 03 AUDIO TITLE "Wintersun (Bobby D'Ambrosio Mix)" PERFORMER "Bond" INDEX 00 03:52:30FILE "03 - Wintersun (Bobby D'Ambrosio Mix).wav" WAVE INDEX 01 00:00:00 TRACK 04 AUDIO TITLE "Speed (Crash Club Mix - Radio Edit)" PERFORMER "Bond" INDEX 00 03:27:38FILE "04 - Speed (Crash Club Mix - Radio Edit).wav" WAVE INDEX 01 00:00:00 TRACK 05 AUDIO TITLE "Fuego (Caliente Mix)" PERFORMER "Bond" INDEX 00 03:06:19FILE "05 - Fuego (Caliente Mix).wav" WAVE INDEX 01 00:00:00 TRACK 06 AUDIO TITLE "Homecoming" PERFORMER "Bond" INDEX 00 03:35:71FILE "06 - Homecoming.wav" WAVE INDEX 01 00:00:00 TRACK 07 AUDIO TITLE "Atlanta" PERFORMER "Bond" INDEX 00 04:19:57FILE "07 - Atlanta.wav" WAVE INDEX 01 00:00:00 TRACK 08 AUDIO TITLE "Shine (Dubshakra Mix)" PERFORMER "Bond" INDEX 00 03:53:07FILE "08 - Shine (Dubshakra Mix).wav" WAVE INDEX 01 00:00:00 TRACK 09 AUDIO TITLE "Time" PERFORMER "Bond" INDEX 00 03:56:21FILE "09 - Time.wav" WAVE INDEX 01 00:00:00 TRACK 10 AUDIO TITLE "Duel (Hectic Mix)" PERFORMER "Bond" INDEX 00 04:26:66FILE "10 - Duel (Hectic Mix).wav" WAVE INDEX 01 00:00:00 TRACK 11 AUDIO TITLE "Bond on Bond (Hectic Mix)" PERFORMER "Bond" INDEX 00 03:24:04FILE "11 - Bond on Bond (Hectic Mix).wav" WAVE INDEX 01 00:00:00 TRACK 12 AUDIO TITLE "Jingle Bell Rock (Pussy Galore Mix)" PERFORMER "Bond" INDEX 00 02:35:02FILE "12 - Jingle Bell Rock (Pussy Galore Mix).wav" WAVE INDEX 01 00:00:00

2005 - Explosive: The Best Of Bond

01 - Victory (Mike Batt Mix) (03:26)
02 - Explosive (03:11)
03 - Fuego (02:59)
04 - Viva! (03:16)
05 - Shine (Dubshakra Mix) (03:57)
06 - Wintersun (03:28)
07 - Scorchio (03:32)
08 - Duel (04:14)
09 - Gypsy Rhapsody (03:36)
10 - Caravan (03:45)
11 - Sugarplum (02:21)
12 - Carmina (04:20)

LOG

Exact Audio Copy V0.99 prebeta 4 from 23. January 2008
EAC extraction logfile from 2. March 2009, 16:15
Bond / Explosive; The Best of Bond
Used drive : HP DVD Writer 840x Adapter: 1 ID: 0
Read mode : SecureUtilize accurate stream : YesDefeat audio cache : YesMake use of C2 pointers : No
Read offset correction : 102Overread into Lead-In and Lead-Out : NoFill up missing offset samples with silence : YesDelete leading and trailing silent blocks : NoNull samples used in CRC calculations : YesUsed interface : Installed external ASPI interfaceGap handling : Appended to previous track
Used output format : User Defined EncoderSelected bitrate : 192 kBit/sQuality : HighAdd ID3 tag : NoCommand line compressor : C:\Program Files\FLAC\flac.exeAdditional command line options : -8 -A tukey(0.25) -A gauss(0.1875) -b 4096 -V -T "artist=%a" -T "title=%t" -T "album=%g" -T "date=%y" -T "tracknumber=%n" -T "genre=%m" %s --sector-align
TOC of the extracted CD
Track | Start | Length | Start sector | End sector --------------------------------------------------------- 1 | 0:00.00 | 3:25.72 | 0 | 15446 2 | 3:25.72 | 3:10.65 | 15447 | 29761 3 | 6:36.62 | 2:59.28 | 29762 | 43214 4 | 9:36.15 | 3:15.65 | 43215 | 57904 5 | 12:52.05 | 3:57.12 | 57905 | 75691 6 | 16:49.17 | 3:27.70 | 75692 | 91286 7 | 20:17.12 | 3:31.50 | 91287 | 107161 8 | 23:48.62 | 4:14.10 | 107162 | 126221 9 | 28:02.72 | 3:36.23 | 126222 | 142444 10 | 31:39.20 | 3:45.02 | 142445 | 159321 11 | 35:24.22 | 2:21.18 | 159322 | 169914 12 | 37:45.40 | 4:20.02 | 169915 | 189416
Track 1
Filename N:\Music\Explosive - The Best Of Bond\01 - Victory (Mike Batt Mix).wav
Pre-gap length 0:00:02.00
Peak level 90.2 % Track quality 100.0 % Test CRC 7D4E8C1E Copy CRC 7D4E8C1E Copy OK
Track 2
Filename N:\Music\Explosive - The Best Of Bond\02 - Explosive.wav
Pre-gap length 0:00:00.22
Peak level 91.7 % Track quality 100.0 % Test CRC D276DB73 Copy CRC D276DB73 Copy OK
Track 3
Filename N:\Music\Explosive - The Best Of Bond\03 - Fuego.wav
Pre-gap length 0:00:00.06
Peak level 91.7 % Track quality 100.0 % Test CRC 7F2CA8B7 Copy CRC 7F2CA8B7 Copy OK
Track 4
Filename N:\Music\Explosive - The Best Of Bond\04 - Viva!.wav
Pre-gap length 0:00:00.13
Peak level 94.8 % Track quality 100.0 % Test CRC 05000553 Copy CRC 05000553 Copy OK
Track 5
Filename N:\Music\Explosive - The Best Of Bond\05 - Shine (Dubshakra Mix).wav
Pre-gap length 0:00:00.33
Peak level 88.5 % Track quality 100.0 % Test CRC 52A9DD95 Copy CRC 52A9DD95 Copy OK
Track 6
Filename N:\Music\Explosive - The Best Of Bond\06 - Wintersun.wav
Pre-gap length 0:00:00.42
Peak level 94.5 % Track quality 100.0 % Test CRC 04BEC616 Copy CRC 04BEC616 Copy OK
Track 7
Filename N:\Music\Explosive - The Best Of Bond\07 - Scorchio.wav
Pre-gap length 0:00:00.53
Peak level 94.3 % Track quality 100.0 % Test CRC 0F9FBBEA Copy CRC 0F9FBBEA Copy OK
Track 8
Filename N:\Music\Explosive - The Best Of Bond\08 - Duel.wav
Pre-gap length 0:00:00.06
Peak level 95.1 % Track quality 100.0 % Test CRC 8A6669DC Copy CRC 8A6669DC Copy OK
Track 9
Filename N:\Music\Explosive - The Best Of Bond\09 - Gypsy Rhapsody.wav
Pre-gap length 0:00:00.89
Peak level 96.2 % Track quality 100.0 % Test CRC B0D856F1 Copy CRC B0D856F1 Copy OK
Track 10
Filename N:\Music\Explosive - The Best Of Bond\10 - Caravan.wav
Pre-gap length 0:00:00.90
Peak level 91.1 % Track quality 100.0 % Test CRC DCF4432B Copy CRC DCF4432B Copy OK
Track 11
Filename N:\Music\Explosive - The Best Of Bond\11 - Sugarplum.wav
Pre-gap length 0:00:00.73
Peak level 89.8 % Track quality 100.0 % Test CRC B1085A98 Copy CRC B1085A98 Copy OK
Track 12
Filename N:\Music\Explosive - The Best Of Bond\12 - Carmina.wav
Peak level 98.4 % Track quality 99.9 % Test CRC 02498D07 Copy CRC 02498D07 Copy OK
No errors occurred
End of status report

CUE

REM GENRE ClassicalREM DATE 2005REM DISCID 9709DD0CREM COMMENT "ExactAudioCopy v0.99pb4"PERFORMER "Bond"TITLE "Explosive: The Best of Bond"FILE "01 - Victory (Mike Batt Mix).wav" WAVE TRACK 01 AUDIO TITLE "Victory (Mike Batt Mix)" PERFORMER "Bond" INDEX 01 00:00:00 TRACK 02 AUDIO TITLE "Explosive" PERFORMER "Bond" INDEX 00 03:25:55FILE "02 - Explosive.wav" WAVE INDEX 01 00:00:00 TRACK 03 AUDIO TITLE "Fuego" PERFORMER "Bond" INDEX 00 03:10:60FILE "03 - Fuego.wav" WAVE INDEX 01 00:00:00 TRACK 04 AUDIO TITLE "Viva!" PERFORMER "Bond" INDEX 00 02:59:18FILE "04 - Viva!.wav" WAVE INDEX 01 00:00:00 TRACK 05 AUDIO TITLE "Shine (Dubshakra Mix)" PERFORMER "Bond" INDEX 00 03:15:40FILE "05 - Shine (Dubshakra Mix).wav" WAVE INDEX 01 00:00:00 TRACK 06 AUDIO TITLE "Wintersun" PERFORMER "Bond" INDEX 00 03:56:55FILE "06 - Wintersun.wav" WAVE INDEX 01 00:00:00 TRACK 07 AUDIO TITLE "Scorchio" PERFORMER "Bond" INDEX 00 03:27:30FILE "07 - Scorchio.wav" WAVE INDEX 01 00:00:00 TRACK 08 AUDIO TITLE "Duel" PERFORMER "Bond" INDEX 00 03:31:45FILE "08 - Duel.wav" WAVE INDEX 01 00:00:00 TRACK 09 AUDIO TITLE "Gypsy Rhapsody" PERFORMER "Bond" INDEX 00 04:13:18FILE "09 - Gypsy Rhapsody.wav" WAVE INDEX 01 00:00:00 TRACK 10 AUDIO TITLE "Caravan" PERFORMER "Bond" INDEX 00 03:35:30FILE "10 - Caravan.wav" WAVE INDEX 01 00:00:00 TRACK 11 AUDIO TITLE "Sugarplum" PERFORMER "Bond" INDEX 00 03:44:22FILE "11 - Sugarplum.wav" WAVE INDEX 01 00:00:00FILE "12 - Carmina.wav" WAVE TRACK 12 AUDIO TITLE "Carmina" PERFORMER "Bond" INDEX 01 00:00:00
-Доп. информация:

Состав:

Elspeth Hanson - Альта
Eos Chater - Скрипка
Tania Davis - Скрипка
Gay-Yee Westerhoff - Виолончель

О группе:

«Bond» - струнный квартет, состоящий из четырех молодых и чрезвычайно одаренных девушек - Haylie Ecker (первая скрипка), Eos Chater (вторая скрипка), Tania Davis (альт) and Gay-Yee Westerhoff (виолончель). За два года активной творческой деятельности «Bond» записали на свой счет множество серьезных достижений, в числе которых два миллиона проданных экземпляров дебютного альбома, бесчисленное количество выступлений по всему миру и несмолкаемый шквал восторженных газетных публикаций, обзоров и заголовков.
«Bond» с самого начала своей музыкальной карьеры были обласканы мировой прессой - из-за сексуального рок-н-рольного имиджа группу называли «Spice Girls классической музыки». Титулы, присужденные квартету, вероятно, вызовут приступы желчной зависти у многих ветеранов сцены. «Bond» - это самый продаваемый струнный квартет за всю историю музыки и первый женский струнный квартет, удостоившийся появления в мировых поп-чартах. К тому же это первый и единственный классический струнный квартет, выставленный из классических чартов. Одним словом - самый успешный.
Своей обжигающей струнной магией «Bond» проникли во все уголки земного шара. Девушки с легкостью покорили каждую страну, в которой давали свои концерты. Среди особенно ярких событий в музыкальной жизни четверки талантливых девушек можно отметить новогоднее шоу у заснеженных Brandenberg Gate в Берлине и совместное выступление с тенором и супер-звездой Luciano Pavarotti в Италии. Также «Bond» сыграли на MTV Awards в США и Сингапуре, и смогли непринужденно остановить вечное Нью-Йоркское уличное движение своим телевизионным представлением на Times Square и Wall Street.
-



Показать сообщения:    

Текущее время: 08-Дек 23:13

Часовой пояс: UTC + 3


Вы не можете начинать темы
Вы не можете отвечать на сообщения
Вы не можете редактировать свои сообщения
Вы не можете удалять свои сообщения
Вы не можете голосовать в опросах
Вы не можете прикреплять файлы к сообщениям
Вы не можете скачивать файлы