(Classical Crossover, Pop) Il Divo - Wicked Game - 2011, FLAC (image+.cue), lossless


 

[Цитировать]

IL DIVO - Wicked Game
Жанр: Classical Crossover, Pop
Год выпуска диска: 2011
Производитель диска: Russia
Аудио кодек: FLAC
Тип рипа: image+.cue
Источник рипа: собственный
Битрейт аудио: lossless
Продолжительность: 41:09.667
Треклист:
01 Wicked Game (Melanconia)
02 Crying (Llorando)
03 Don't Cry For Me Argentina
04 Dov'e l'Amore
05 Falling Slowly (Te Prometo)
06 Come What May (Te Amare)
07 Senza Parole
08 Stay (Ven a Mi)
09 Sempre Sempre
10 Time To Say Goodbye (Con Te Partiro)
Примечание: В раздачу включены сканы. В теме сканы присутствуют для тех, у кого не откроются в раздаче.
mp3

EAC log

Exact Audio Copy V1.0 beta 3 from 29. August 2011
EAC extraction logfile from 9. November 2011, 21:01
IL DIVO / Wicked Game
Used drive : Optiarc DVD RW AD-5200S Adapter: 5 ID: 0
Read mode : Secure
Utilize accurate stream : Yes
Defeat audio cache : Yes
Make use of C2 pointers : No
Read offset correction : 48
Overread into Lead-In and Lead-Out : No
Fill up missing offset samples with silence : Yes
Delete leading and trailing silent blocks : No
Null samples used in CRC calculations : Yes
Used interface : Native Win32 interface for Win NT & 2000
Used output format : Internal WAV Routines
Sample format : 44.100 Hz; 16 Bit; Stereo
TOC of the extracted CD
Track | Start | Length | Start sector | End sector
---------------------------------------------------------
1 | 0:00.15 | 4:15.33 | 15 | 19172
2 | 4:15.48 | 3:24.39 | 19173 | 34511
3 | 7:40.12 | 5:14.59 | 34512 | 58120
4 | 12:54.71 | 3:26.36 | 58121 | 73606
5 | 16:21.32 | 4:07.41 | 73607 | 92172
6 | 20:28.73 | 4:56.33 | 92173 | 114405
7 | 25:25.31 | 4:16.51 | 114406 | 133656
8 | 29:42.07 | 3:20.56 | 133657 | 148712
9 | 33:02.63 | 3:47.02 | 148713 | 165739
10 | 36:49.65 | 4:20.00 | 165740 | 185239
Range status and errors
Selected range
Filename R:\R_MUSIC\IL DIVO [2011] Wicked Game (wav)\IL DIVO - Wicked Game.wav
Peak level 100.0 %
Extraction speed 3.6 X
Range quality 100.0 %
Test CRC 14B7B683
Copy CRC 14B7B683
Copy OK
No errors occurred
AccurateRip summary
Track 1 not present in database
Track 2 not present in database
Track 3 not present in database
Track 4 not present in database
Track 5 not present in database
Track 6 not present in database
Track 7 not present in database
Track 8 not present in database
Track 9 not present in database
Track 10 not present in database
None of the tracks are present in the AccurateRip database
End of status report
==== Log checksum 8280202705411A7E19C5F11F25B7ACFF8448D7FC7251F168FDA7985694BF09A9 ====

CUE

REM GENRE Crossover
REM DATE 2011
REM DISCID 8909A50A
REM COMMENT "ExactAudioCopy v1.0b3"
CATALOG 0886979644823
PERFORMER "IL DIVO"
TITLE "Wicked Game"
FILE "IL DIVO - Wicked Game.wav" WAVE
TRACK 01 AUDIO
TITLE "Wicked Game (Melanconia)"
PERFORMER "IL DIVO"
ISRC GBHMU1100150
INDEX 00 00:00:00
INDEX 01 00:00:15
TRACK 02 AUDIO
TITLE "Crying (Llorando)"
PERFORMER "IL DIVO"
ISRC GBHMU1100151
INDEX 00 04:13:63
INDEX 01 04:15:48
TRACK 03 AUDIO
TITLE "Don't Cry For Me Argentina"
PERFORMER "IL DIVO"
ISRC GBHMU1100152
INDEX 00 07:39:20
INDEX 01 07:40:12
TRACK 04 AUDIO
TITLE "Dov'e l'Amore"
PERFORMER "IL DIVO"
ISRC GBHMU1100153
INDEX 00 12:54:28
INDEX 01 12:54:71
TRACK 05 AUDIO
TITLE "Falling Slowly (Te Prometo)"
PERFORMER "IL DIVO"
ISRC GBHMU1100154
INDEX 00 16:19:14
INDEX 01 16:21:32
TRACK 06 AUDIO
TITLE "Come What May (Te Amare)"
PERFORMER "IL DIVO"
ISRC GBHMU1100155
INDEX 00 20:28:18
INDEX 01 20:28:73
TRACK 07 AUDIO
TITLE "Senza Parole"
PERFORMER "IL DIVO"
ISRC GBHMU1100156
INDEX 00 25:24:28
INDEX 01 25:25:31
TRACK 08 AUDIO
TITLE "Stay (Ven a Mi)"
PERFORMER "IL DIVO"
ISRC GBHMU1100157
INDEX 00 29:40:35
INDEX 01 29:42:07
TRACK 09 AUDIO
TITLE "Sempre Sempre"
PERFORMER "IL DIVO"
ISRC GBHMU1100158
INDEX 00 33:01:49
INDEX 01 33:02:63
TRACK 10 AUDIO
TITLE "Time To Say Goodbye (Con Te Partiro)"
PERFORMER "IL DIVO"
ISRC GBHMU1100159
INDEX 00 36:48:24
INDEX 01 36:49:65



Показать сообщения:    

Текущее время: 22-Янв 04:45

Часовой пояс: UTC + 3


Вы не можете начинать темы
Вы не можете отвечать на сообщения
Вы не можете редактировать свои сообщения
Вы не можете удалять свои сообщения
Вы не можете голосовать в опросах
Вы не можете прикреплять файлы к сообщениям
Вы не можете скачивать файлы