(Classical, Baroque) Les Boreades - Lennon & McCartney on Baroque - 2009, FLAC (image+.cue), lossless


 

[Цитировать]

Les Boreades - Lennon & McCartney on Baroque
Жанр: Classical, Baroque
Страна-производитель диска: Япония
Год выпуска диска: 2009
Издатель (лейбл): King Records
Номер по каталогу: KICC-818
Аудиокодек: FLAC (*.flac)
Тип рипа: image+.cue
Битрейт аудио: lossless
Продолжительность: 62:02
Источник (релизер): диск из моей коллекции
Наличие сканов в содержимом раздачи: да
Треклист:
01. Ob-La-Di, Ob-La-Da - 2:59
02. Penny Lane - 2:52
03. Girl - 2:36
04. Norwegian Wood - 1:58
05. Oh! Darling - 3:02
06. Across the Universe - 3:47
07. Lady Madonna - 2:11
08. Here, There and Everywhere - 2:27
09. Yesterday - 2:25
10. Because - 2:43
11. A Day in the Life - 4:32
12. And I Love Her - 2:33
13. The Fool on the Hill - 3:15
14. Hello Goodbye - 3:15
15. Hey Jude - 4:28
16. Michelle - 2:49
17. Eleanor Rigby - 2:06
18. Lucy in the Sky with Diamonds - 4:50
19. In My Life - 2:28
20. All You Need Is Love - 3:32
All composed by John Lennon & Paul McCartney.
All arrangements by Eric Milnes.
Recorded on June 4-5, 2000 (#2,4,7,9,10,13,17,18), September 28 to October 1, 2001 (#1,3,11,14,16), August 29-31, 2006 (#5,6,8,12,15,19,20) at Saint-Augustin-de-Mirabel (Quebec).
Recorded and produced by Johanne Goyette.
Les Boreades:
Francis Colpron - recorder, traverso
Helene Plouffe - violin, viola, organ, harp
Susie Napper - viola da gamba, cello, harpsichord, percussion
Margaret Little - viola da gamba, viola
Sylvain Bergeron - guitar, organ
Femke Bergsma - recorder, viola, percussion
Eric Lagace - double bass
Mathew Jennejohn - oboe, recorder, cornetto
Eric Milnes - harpsichord, organ, guitar, percussion and direction
and Guests

EAC Log

Exact Audio Copy V1.0 beta 1 from 15. November 2010
EAC extraction logfile from 6. November 2011, 23:52
Les Boreades / Lennon & McCartney on Baroque
Used drive : ASUS DRW-24B1LT Adapter: 5 ID: 0
Read mode : SecureUtilize accurate stream : YesDefeat audio cache : YesMake use of C2 pointers : No
Read offset correction : 6Overread into Lead-In and Lead-Out : NoFill up missing offset samples with silence : YesDelete leading and trailing silent blocks : NoNull samples used in CRC calculations : YesUsed interface : Native Win32 interface for Win NT & 2000
Used output format : User Defined EncoderSelected bitrate : 768 kBit/sQuality : HighAdd ID3 tag : NoCommand line compressor : C:\Program Files\Exact Audio Copy\Flac\flac.exeAdditional command line options : -8 -V -T "ARTIST=%a" -T "TITLE=%t" -T "ALBUM=%g" -T "DATE=%y" -T "TRACKNUMBER=%n" -T "TOTALTRACKS=%x" -T "GENRE=%m" -T "ALBUMARTIST=%v" -T "ALBUM ARTIST=%v" -T "COMMENT=EAC Secure Mode, Test & Copy, AccurateRip, FLAC -8" %s
TOC of the extracted CD
Track | Start | Length | Start sector | End sector --------------------------------------------------------- 1 | 0:00.00 | 3:03.14 | 0 | 13738 2 | 3:03.14 | 2:56.11 | 13739 | 26949 3 | 5:59.25 | 2:39.07 | 26950 | 38881 4 | 8:38.32 | 2:02.43 | 38882 | 48074 5 | 10:41.00 | 3:04.52 | 48075 | 61926 6 | 13:45.52 | 3:50.21 | 61927 | 79197 7 | 17:35.73 | 2:14.18 | 79198 | 89265 8 | 19:50.16 | 2:29.31 | 89266 | 100471 9 | 22:19.47 | 2:27.13 | 100472 | 111509 10 | 24:46.60 | 2:43.45 | 111510 | 123779 11 | 27:30.30 | 4:32.15 | 123780 | 144194 12 | 32:02.45 | 2:35.18 | 144195 | 155837 13 | 34:37.63 | 3:18.17 | 155838 | 170704 14 | 37:56.05 | 3:17.27 | 170705 | 185506 15 | 41:13.32 | 4:40.01 | 185507 | 206507 16 | 45:53.33 | 2:47.47 | 206508 | 219079 17 | 48:41.05 | 2:09.39 | 219080 | 228793 18 | 50:50.44 | 5:06.72 | 228794 | 251815 19 | 55:57.41 | 2:31.06 | 251816 | 263146 20 | 58:28.47 | 3:33.39 | 263147 | 279160
Range status and errors
Selected range
Filename F:\audio\Les Boreades - Lennon & McCartney on Baroque.wav
Peak level 100.0 % Extraction speed 0.3 X Range quality 100.0 % Test CRC 9C1B967C Copy CRC 9C1B967C Copy OK
No errors occurred
AccurateRip summary
Track 1 not present in databaseTrack 2 not present in databaseTrack 3 not present in databaseTrack 4 not present in databaseTrack 5 not present in databaseTrack 6 not present in databaseTrack 7 not present in databaseTrack 8 not present in databaseTrack 9 not present in databaseTrack 10 not present in databaseTrack 11 not present in databaseTrack 12 not present in databaseTrack 13 not present in databaseTrack 14 not present in databaseTrack 15 not present in databaseTrack 16 not present in databaseTrack 17 not present in databaseTrack 18 not present in databaseTrack 19 not present in databaseTrack 20 not present in database
None of the tracks are present in the AccurateRip database
End of status report
==== Log checksum 84ED167E7DA902EF68A7C6A6ADD192BA97960A025DFD621EDAEDF833C85FCE33 ====

CUE

REM GENRE ClassicalREM DATE 2009REM DISCID 170E8A14REM COMMENT "ExactAudioCopy v1.0b1"PERFORMER "Les Boreades"TITLE "Lennon & McCartney on Baroque"FILE "Les Boreades - Lennon & McCartney on Baroque.wav" WAVE TRACK 01 AUDIO TITLE "Ob-La-Di, Ob-La-Da" PERFORMER "Les Boreades" INDEX 01 00:00:00 TRACK 02 AUDIO TITLE "Penny Lane" PERFORMER "Les Boreades" INDEX 00 03:01:14 INDEX 01 03:03:14 TRACK 03 AUDIO TITLE "Girl" PERFORMER "Les Boreades" INDEX 00 05:57:25 INDEX 01 05:59:25 TRACK 04 AUDIO TITLE "Norwegian Wood" PERFORMER "Les Boreades" INDEX 00 08:36:32 INDEX 01 08:38:32 TRACK 05 AUDIO TITLE "Oh! Darling" PERFORMER "Les Boreades" INDEX 00 10:39:00 INDEX 01 10:41:00 TRACK 06 AUDIO TITLE "Across the Universe" PERFORMER "Les Boreades" INDEX 00 13:43:52 INDEX 01 13:45:52 TRACK 07 AUDIO TITLE "Lady Madonna" PERFORMER "Les Boreades" INDEX 00 17:33:73 INDEX 01 17:35:73 TRACK 08 AUDIO TITLE "Here, There and Everywhere" PERFORMER "Les Boreades" INDEX 00 19:48:16 INDEX 01 19:50:16 TRACK 09 AUDIO TITLE "Yesterday" PERFORMER "Les Boreades" INDEX 00 22:17:47 INDEX 01 22:19:47 TRACK 10 AUDIO TITLE "Because" PERFORMER "Les Boreades" INDEX 00 24:44:60 INDEX 01 24:46:60 TRACK 11 AUDIO TITLE "A Day in the Life" PERFORMER "Les Boreades" INDEX 00 27:28:30 INDEX 01 27:30:30 TRACK 12 AUDIO TITLE "And I Love Her" PERFORMER "Les Boreades" INDEX 00 32:00:45 INDEX 01 32:02:45 TRACK 13 AUDIO TITLE "The Fool on the Hill" PERFORMER "Les Boreades" INDEX 00 34:35:63 INDEX 01 34:37:63 TRACK 14 AUDIO TITLE "Hello Goodbye" PERFORMER "Les Boreades" INDEX 00 37:54:05 INDEX 01 37:56:05 TRACK 15 AUDIO TITLE "Hey Jude" PERFORMER "Les Boreades" INDEX 00 41:11:32 INDEX 01 41:13:32 TRACK 16 AUDIO TITLE "Michelle" PERFORMER "Les Boreades" INDEX 00 45:51:33 INDEX 01 45:53:33 TRACK 17 AUDIO TITLE "Eleanor Rigby" PERFORMER "Les Boreades" INDEX 00 48:39:05 INDEX 01 48:41:05 TRACK 18 AUDIO TITLE "Lucy in the Sky with Diamonds" PERFORMER "Les Boreades" INDEX 00 50:48:44 INDEX 01 50:50:44 TRACK 19 AUDIO TITLE "In My Life" PERFORMER "Les Boreades" INDEX 00 55:55:41 INDEX 01 55:57:41 TRACK 20 AUDIO TITLE "All You Need Is Love" PERFORMER "Les Boreades" INDEX 00 58:26:47 INDEX 01 58:28:47



Показать сообщения:    

Текущее время: 11-Дек 05:18

Часовой пояс: UTC + 3


Вы не можете начинать темы
Вы не можете отвечать на сообщения
Вы не можете редактировать свои сообщения
Вы не можете удалять свои сообщения
Вы не можете голосовать в опросах
Вы не можете прикреплять файлы к сообщениям
Вы не можете скачивать файлы