(classical, instrumental, britpop) The Royal Philharmonic Orchestra Plays the Music of Oasis - 1997, FLAC (tracks+.cue), lossless


 

[Цитировать]

The Royal Philharmonic Orchestra Plays the Music of Oasis
Жанр: classical, instrumental, britpop
Год выпуска диска: 1997
Производитель диска: United Kindom
Аудио кодек: FLAC
Тип рипа: tracks+.cue
Битрейт аудио: lossless
Продолжительность: 01:00:06
Треклист:
01. Roll With It
02. Live Forever
03. Rock 'n' Roll Star
04. Cigarettes & Alcohol
05. Shakermaker
06. Up in the Sky
07. Don't Look Back In Anger
08. Wonderwall
09. Supersonic
10. She's Electric
11. Some Might Say
12. Champagne Supernova

Отчёт EAC

Exact Audio Copy V0.99 prebeta 5 from 4. May 2009
Отчёт EAC об извлечении, выполненном 15. октября 2011, 14:05
The Royal Philharmonic Orchestra / Plays The Music Of OASIS
Дисковод: Optiarc DVD RW AD-5240S Adapter: 3 ID: 1
Режим чтения : Достоверность
Использование точного потока : Да
Отключение кэша аудио : Да
Использование указателей C2 : Нет
Коррекция смещения при чтении : 48
Способность читать области Lead-in и Lead-out : Нет
Заполнение пропущенных сэмплов тишиной : Да
Удаление блоков с тишиной в начале и конце : Нет
При вычислениях CRC использовались нулевые сэмплы : Да
Интерфейс : Встроенный Win32-интерфейс для Win NT/2000
Обработка зазоров : Добавлено к предыдущему треку
Выходной формат : Пользовательский кодировщик
Выбранный битрейт : 768 kBit/s
Качество : Высокий
Добавление ID3-тэга : Нет
Утилита сжатия : L:\программы\Exact Audio Copy\FLAC\FLAC.EXE
Дополнительные параметры : -6 -V -T "ARTIST=%a" -T "TITLE=%t" -T "ALBUM=%g" -T "DATE=%y" -T "TRACKNUMBER=%n" -T "GENRE=%m" -T "COMMENT=%e" %s -o %d
TOC извлечённого CD
Трек | Старт | Длительность | Начальный сектор | Конечный сектор
---------------------------------------------------------------------
1 | 0:00.00 | 3:56.15 | 0 | 17714
2 | 3:56.15 | 4:46.57 | 17715 | 39221
3 | 8:42.72 | 5:02.53 | 39222 | 61924
4 | 13:45.50 | 4:30.60 | 61925 | 82234
5 | 18:16.35 | 5:13.72 | 82235 | 105781
6 | 23:30.32 | 4:43.08 | 105782 | 127014
7 | 28:13.40 | 4:48.70 | 127015 | 148684
8 | 33:02.35 | 4:58.22 | 148685 | 171056
9 | 38:00.57 | 5:08.08 | 171057 | 194164
10 | 43:08.65 | 4:00.15 | 194165 | 212179
11 | 47:09.05 | 5:43.02 | 212180 | 237906
12 | 52:52.07 | 7:12.33 | 237907 | 270339
Трек 1
Имя файла L:\Новая папка\01. The Royal Philharmonic Orchestra - Roll With It.wav
Длина предзазора 0:00:02.00
Пиковый уровень 96.7 %
Качество трека 100.0 %
CRC теста 135E6DA3
CRC копии 135E6DA3
Точное извлечение (достоверность 5) [7999EBD4]
Копирование... OK
Трек 2
Имя файла L:\Новая папка\02. The Royal Philharmonic Orchestra - Live Forever.wav
Длина предзазора 0:00:02.25
Пиковый уровень 99.1 %
Качество трека 100.0 %
CRC теста 91CE3732
CRC копии 91CE3732
Точное извлечение (достоверность 5) [121763D4]
Копирование... OK
Трек 3
Имя файла L:\Новая папка\03. The Royal Philharmonic Orchestra - Rock 'n' Roll Star.wav
Длина предзазора 0:00:02.25
Пиковый уровень 100.0 %
Качество трека 100.0 %
CRC теста DA5E40F4
CRC копии DA5E40F4
Точное извлечение (достоверность 5) [C31EF199]
Копирование... OK
Трек 4
Имя файла L:\Новая папка\04. The Royal Philharmonic Orchestra - Cigarettes & Alcohol.wav
Длина предзазора 0:00:02.25
Пиковый уровень 100.0 %
Качество трека 100.0 %
CRC теста 4824EE80
CRC копии 4824EE80
Точное извлечение (достоверность 5) [6F2BBC76]
Копирование... OK
Трек 5
Имя файла L:\Новая папка\05. The Royal Philharmonic Orchestra - Shakermaker.wav
Длина предзазора 0:00:02.25
Пиковый уровень 95.5 %
Качество трека 100.0 %
CRC теста 16B969A2
CRC копии 16B969A2
Точное извлечение (достоверность 5) [BD88D97F]
Копирование... OK
Трек 6
Имя файла L:\Новая папка\06. The Royal Philharmonic Orchestra - Up in the Sky.wav
Длина предзазора 0:00:02.25
Пиковый уровень 95.3 %
Качество трека 100.0 %
CRC теста A4F510B1
CRC копии A4F510B1
Точное извлечение (достоверность 5) [E101F9E2]
Копирование... OK
Трек 7
Имя файла L:\Новая папка\07. The Royal Philharmonic Orchestra - Don't Look Back In Anger.wav
Длина предзазора 0:00:02.25
Пиковый уровень 95.3 %
Качество трека 100.0 %
CRC теста 35AE25FE
CRC копии 35AE25FE
Точное извлечение (достоверность 5) [FD28BC8D]
Копирование... OK
Трек 8
Имя файла L:\Новая папка\08. The Royal Philharmonic Orchestra - Wonderwall.wav
Длина предзазора 0:00:02.25
Пиковый уровень 91.2 %
Качество трека 100.0 %
CRC теста 29ACE45E
CRC копии 29ACE45E
Точное извлечение (достоверность 5) [C9048B6F]
Копирование... OK
Трек 9
Имя файла L:\Новая папка\09. The Royal Philharmonic Orchestra - Supersonic.wav
Длина предзазора 0:00:02.25
Пиковый уровень 97.6 %
Качество трека 100.0 %
CRC теста FC431582
CRC копии FC431582
Точное извлечение (достоверность 5) [4B4F94FD]
Копирование... OK
Трек 10
Имя файла L:\Новая папка\10. The Royal Philharmonic Orchestra - She's Electric.wav
Длина предзазора 0:00:02.25
Пиковый уровень 97.5 %
Качество трека 100.0 %
CRC теста DE30E9F3
CRC копии DE30E9F3
Точное извлечение (достоверность 5) [C5C29C62]
Копирование... OK
Трек 11
Имя файла L:\Новая папка\11. The Royal Philharmonic Orchestra - Some Might Say.wav
Длина предзазора 0:00:02.25
Пиковый уровень 100.0 %
Качество трека 99.9 %
CRC теста 31B7C045
CRC копии 31B7C045
Точное извлечение (достоверность 5) [2FAFD622]
Копирование... OK
Трек 12
Имя файла L:\Новая папка\12. The Royal Philharmonic Orchestra - Champagne Supernova.wav
Длина предзазора 0:00:02.25
Пиковый уровень 97.1 %
Качество трека 100.0 %
CRC теста 40BEF21F
CRC копии 40BEF21F
Точное извлечение (достоверность 6) [F7FCABFE]
Копирование... OK
Все треки извлечены точно
Ошибок не произошло
Конец отчёта

Содержание индексной карты (.CUE)

REM GENRE "Classic Rock"
REM DATE 1997
REM DISCID AB0E140C
REM COMMENT "ExactAudioCopy v0.99pb5"
CATALOG 0000000000000
PERFORMER "The Royal Philharmonic Orchestra"
TITLE "Plays The Music Of OASIS"
FILE "01. The Royal Philharmonic Orchestra - Roll With It.wav" WAVE
TRACK 01 AUDIO
TITLE "Roll With It"
PERFORMER "The Royal Philharmonic Orchestra"
INDEX 01 00:00:00
TRACK 02 AUDIO
TITLE "Live Forever"
PERFORMER "The Royal Philharmonic Orchestra"
INDEX 00 03:53:65
FILE "02. The Royal Philharmonic Orchestra - Live Forever.wav" WAVE
INDEX 01 00:00:00
TRACK 03 AUDIO
TITLE "Rock 'n' Roll Star"
PERFORMER "The Royal Philharmonic Orchestra"
INDEX 00 04:44:32
FILE "03. The Royal Philharmonic Orchestra - Rock 'n' Roll Star.wav" WAVE
INDEX 01 00:00:00
TRACK 04 AUDIO
TITLE "Cigarettes & Alcohol"
PERFORMER "The Royal Philharmonic Orchestra"
INDEX 00 05:00:28
FILE "04. The Royal Philharmonic Orchestra - Cigarettes & Alcohol.wav" WAVE
INDEX 01 00:00:00
TRACK 05 AUDIO
TITLE "Shakermaker"
PERFORMER "The Royal Philharmonic Orchestra"
INDEX 00 04:28:35
FILE "05. The Royal Philharmonic Orchestra - Shakermaker.wav" WAVE
INDEX 01 00:00:00
TRACK 06 AUDIO
TITLE "Up in the Sky"
PERFORMER "The Royal Philharmonic Orchestra"
INDEX 00 05:11:47
FILE "06. The Royal Philharmonic Orchestra - Up in the Sky.wav" WAVE
INDEX 01 00:00:00
TRACK 07 AUDIO
TITLE "Don't Look Back In Anger"
PERFORMER "The Royal Philharmonic Orchestra"
INDEX 00 04:40:58
FILE "07. The Royal Philharmonic Orchestra - Don't Look Back In Anger.wav" WAVE
INDEX 01 00:00:00
TRACK 08 AUDIO
TITLE "Wonderwall"
PERFORMER "The Royal Philharmonic Orchestra"
INDEX 00 04:46:45
FILE "08. The Royal Philharmonic Orchestra - Wonderwall.wav" WAVE
INDEX 01 00:00:00
TRACK 09 AUDIO
TITLE "Supersonic"
PERFORMER "The Royal Philharmonic Orchestra"
INDEX 00 04:55:72
FILE "09. The Royal Philharmonic Orchestra - Supersonic.wav" WAVE
INDEX 01 00:00:00
TRACK 10 AUDIO
TITLE "She's Electric"
PERFORMER "The Royal Philharmonic Orchestra"
INDEX 00 05:05:58
FILE "10. The Royal Philharmonic Orchestra - She's Electric.wav" WAVE
INDEX 01 00:00:00
TRACK 11 AUDIO
TITLE "Some Might Say"
PERFORMER "The Royal Philharmonic Orchestra"
INDEX 00 03:57:65
FILE "11. The Royal Philharmonic Orchestra - Some Might Say.wav" WAVE
INDEX 01 00:00:00
TRACK 12 AUDIO
TITLE "Champagne Supernova"
PERFORMER "The Royal Philharmonic Orchestra"
INDEX 00 05:40:52
FILE "12. The Royal Philharmonic Orchestra - Champagne Supernova.wav" WAVE
INDEX 01 00:00:00



Показать сообщения:    

Текущее время: 08-Дек 01:17

Часовой пояс: UTC + 3


Вы не можете начинать темы
Вы не можете отвечать на сообщения
Вы не можете редактировать свои сообщения
Вы не можете удалять свои сообщения
Вы не можете голосовать в опросах
Вы не можете прикреплять файлы к сообщениям
Вы не можете скачивать файлы