(Classical, Modern) Игорь Дункул и квартет "Новая Классика" - Импрессионизм - 2004, FLAC (image+.cue) lossless


 

[Цитировать]

Игорь Дункул и квартет "Новая Классика" - Импрессионизм
Жанр: Classical, Modern
Страна-производитель диска: Россия
Год издания диска: 2004
Издатель (лейбл): Dunkul
Номер по каталогу: 002
Аудиокодек: FLAC
Тип рипа: image+.cue
Битрейт аудио: lossless
Продолжительность: 00:46:19
Источник: собственный рип
Наличие сканов в содержимом раздачи: да
Треклист:
01. На волю [0:04:42.15]
02. Мелодия [0:02:45.24]
03. Плач [0:04:22.67]
04. Бах [0:05:11.19]
05. Милый друг [0:03:20.58]
06. Белые ночи [0:07:10.07]
07. Блестящий Нуреев [0:01:51.67]
08. Детство [0:02:31.19]
09. Веснв в Питере [0:04:08.56]
10. Полетели [0:03:55.62]
11. Эпилог [0:06:19.47]
Исполнители:
Игорь Дункул - фортепиано, клавишные
Л. Александрова - виолончель
М. Озола - скрипка
Н. Марашова - домбра, мандолина
С. Нагорный - сопрано-саксофон
Б. Мажоров - бас-гитара
А. Любчик - контрабас, бас-гитара
А. Старостенко - гитара
О. Паномарёва - вокал
Е. Комарова - вокал
Официальный сайт Игоря Дункула

Лог создания рипа

Exact Audio Copy V0.99 prebeta 4 from 23. January 2008
EAC extraction logfile from 17. September 2011, 11:36
Игорь Дункул / Импрессионизм
Used drive : PLEXTOR DVDR PX-800A Adapter: 3 ID: 0
Read mode : SecureUtilize accurate stream : YesDefeat audio cache : YesMake use of C2 pointers : No
Read offset correction : 48Overread into Lead-In and Lead-Out : NoFill up missing offset samples with silence : YesDelete leading and trailing silent blocks : NoNull samples used in CRC calculations : YesUsed interface : Native Win32 interface for Win NT & 2000
Used output format : Internal WAV RoutinesSample format : 44.100 Hz; 16 Bit; Stereo
TOC of the extracted CD
Track | Start | Length | Start sector | End sector --------------------------------------------------------- 1 | 0:00.00 | 4:42.15 | 0 | 21164 2 | 4:42.15 | 2:45.24 | 21165 | 33563 3 | 7:27.39 | 4:22.67 | 33564 | 53280 4 | 11:50.31 | 5:11.19 | 53281 | 76624 5 | 17:01.50 | 3:20.58 | 76625 | 91682 6 | 20:22.33 | 7:10.07 | 91683 | 123939 7 | 27:32.40 | 1:51.67 | 123940 | 132331 8 | 29:24.32 | 2:31.19 | 132332 | 143675 9 | 31:55.51 | 4:08.56 | 143676 | 162331 10 | 36:04.32 | 3:55.62 | 162332 | 180018 11 | 40:00.19 | 6:19.47 | 180019 | 208490
Range status and errors
Selected range
Filename D:\SSKAIN\Игорь Дункул - Импрессионизм - 2004\Игорь Дункул - Импрессионизм.wav
Peak level 100.0 % Range quality 100.0 % Test CRC 7E52685C Copy CRC 7E52685C Copy OK
No errors occurred
AccurateRip summary
Track 1 not present in databaseTrack 2 not present in databaseTrack 3 not present in databaseTrack 4 not present in databaseTrack 5 not present in databaseTrack 6 not present in databaseTrack 7 not present in databaseTrack 8 not present in databaseTrack 9 not present in databaseTrack 10 not present in databaseTrack 11 not present in database
None of the tracks are present in the AccurateRip database
End of status report



Показать сообщения:    

Текущее время: 08-Дек 19:08

Часовой пояс: UTC + 3


Вы не можете начинать темы
Вы не можете отвечать на сообщения
Вы не можете редактировать свои сообщения
Вы не можете удалять свои сообщения
Вы не можете голосовать в опросах
Вы не можете прикреплять файлы к сообщениям
Вы не можете скачивать файлы