(Классика в современной обработке) Holger Stiller - Venedig - Ein traumhafter Spaziergang durch Venedig mit sanfter klassischer Musik (Прекрасные прогулки по Венеции с мягкой классической музыкой) - 2010, FLAC (image+.cue), lossless


 

[Цитировать]

Holger Stiller - Venedig - Ein traumhafter Spaziergang durch Venedig mit sanfter klassischer Musik (Прекрасные прогулки по Венеции с мягкой классической музыкой)
Жанр: Классика в современной обработке, relax, anti-stress
Год выпуска диска: 2010
Производитель диска: Germany
Аудио кодек: FLAC
Тип рипа: image+.cue
Битрейт аудио: lossless
Продолжительность: 63 min 55 sec
Источник рипа: Собственный CD
Треклист:
01. "Ankunft der Konigin Sheba", Sinfonia aus der Oper "Salamo", G.F. Handel, HWV 67 14:33
02. "La Primavera" aus "Die vier Jahreszeiten" von Antonio Vivaldi 15:53
03. "Schafe konnen sicher weiden", Aria aus der Kandate "Was mir behagt, ist die muntere Jagd", J.S. Bach, BWV 208 15:42
04. "Air" aus der "Dritten Orchestersuite" von J.S.Bach, BWV 1068 05:23
05. "Wachet auf, ruft uns die Stimme" von J.S.Bach, BWV 140 12:23
Информация: Инструменты:
Виолончель, скрипка, валторна, струнные, гобой, английский рожок, арфа, орган, клавесин, флейта, гитара, бас, ударные, клавишные, кларнет, фагот, контрабас, альт.

Лог создания рипа

Exact Audio Copy V0.99 prebeta 5 from 4. May 2009
Отчёт EAC об извлечении, выполненном 21. апреля 2011, 19:41
Holger Stiller / Venedig
Дисковод: Optiarc DVD RW AD-7240S Adapter: 1 ID: 1
Режим чтения : ДостоверностьИспользование точного потока : ДаОтключение кэша аудио : ДаИспользование указателей C2 : Нет
Коррекция смещения при чтении : 48Способность читать области Lead-in и Lead-out : НетЗаполнение пропущенных сэмплов тишиной : ДаУдаление блоков с тишиной в начале и конце : НетПри вычислениях CRC использовались нулевые сэмплы : ДаИнтерфейс : Встроенный Win32-интерфейс для Win NT/2000
Выходной формат : Пользовательский кодировщикВыбранный битрейт : 1024 kBit/sКачество : ВысокийДобавление ID3-тэга : НетУтилита сжатия : C:\Program Files (x86)\Exact Audio Copy\Flac\flac.exeДополнительные параметры : -8 -V -T "ARTIST=%a" -T "TITLE=%t" -T "ALBUM=%g" -T "DATE=%y" -T "TRACKNUMBER=%n" -T "GENRE=%m" -T "COMMENT=EACFLAC -8" %s
TOC извлечённого CD
Трек | Старт | Длительность | Начальный сектор | Конечный сектор --------------------------------------------------------------------- 1 | 0:00.00 | 14:33.00 | 0 | 65474 2 | 14:33.00 | 15:53.22 | 65475 | 136971 3 | 30:26.22 | 15:42.53 | 136972 | 207674 4 | 46:09.00 | 5:23.22 | 207675 | 231921 5 | 51:32.22 | 12:23.28 | 231922 | 287674
Характеристики диапазона извлечения и сообщения об ошибках
Выбранный диапазон
Имя файла D:\Музычго\Классика\Holger Stiller - Venedig\Holger Stiller - Venedig.wav
Пиковый уровень 98.8 % Качество диапазона 99.9 % CRC теста E5E79519 CRC копии E5E79519 Копирование... OK
Ошибок не произошло
AccurateRip: сводка
Трек 1 нет в базе данныхТрек 2 нет в базе данныхТрек 3 нет в базе данныхТрек 4 нет в базе данныхТрек 5 нет в базе данных
Ни одного трека нет в базе AccurateRip
Конец отчёта

Лог проверки качества

-----------------------
DON'T MODIFY THIS FILE
-----------------------
PERFORMER: auCDtect Task Manager, ver. 1.5.1RC3 build 1.5.1.4Copyright (c) 2008-2010 y-soft. All rights reservedhttp://y-soft.org
ANALYZER: auCDtect: CD records authenticity detector, version 0.8.2Copyright (c) 2004 Oleg Berngardt. All rights reserved.Copyright (c) 2004 Alexander Djourik. All rights reserved.
FILE: Holger Stiller - Venedig.flac Size: 407379316 Hash: 9895B86D960C4AABA88F1DB8095F42D8 Accuracy: -m0 Conclusion: CDDA 100% Signature: 981B7254024E3A9E0DA8C02FD535DEE55A0E2388



Показать сообщения:    

Текущее время: 08-Дек 01:19

Часовой пояс: UTC + 3


Вы не можете начинать темы
Вы не можете отвечать на сообщения
Вы не можете редактировать свои сообщения
Вы не можете удалять свои сообщения
Вы не можете голосовать в опросах
Вы не можете прикреплять файлы к сообщениям
Вы не можете скачивать файлы