(Neo Classical) Rondo Veneziano - Flashback Collection 3 CD - 2006, FLAC (image+.cue), lossless


 

[Цитировать]

Rondo Veneziano - Flashback Collection 3 CD
Жанр: Neo Classical
Год выпуска диска: 2006
Аудио кодек: FLAC
Тип рипа: image+.cue
Битрейт аудио: lossless
Продолжительность: 40:17 + 40:53 + 42:51
Источник: ослосеть
Треклист:

CD1

1. Rondo Veneziano - Rondo Veneziano [03:31]
2. Rondo Veneziano - Musica... fantasia [02:52]
3. Rondo Veneziano - Cameo [03:44]
4. Rondo Veneziano - Estasi Veneziana [03:07]
5. Rondo Veneziano - Arabesco [03:34]
6. Rondo Veneziano - Misteriosa Venezia [03:06]
7. Rondo Veneziano - La scala d'oro [03:24]
8. Rondo Veneziano - Divertissement [03:20]
9. Rondo Veneziano - Odissea Veneziana [02:38]
10. Rondo Veneziano - Magica melodia [03:26]
11. Rondo Veneziano - Antichi ricordi [03:50]
12. Rondo Veneziano - Alchimie sonore [03:40]

CD2

1. Rondo Veneziano - Colombina [03:07]
2. Rondo Veneziano - Pulcinella [04:01]
3. Rondo Veneziano - Preludio all'amore [03:00]
4. Rondo Veneziano - Alla corte del re [02:54]
5. Rondo Veneziano - Barocco [03:08]
6. Rondo Veneziano - Aria di festa [01:16]
7. Rondo Veneziano - Bettina [03:11]
8. Rondo Veneziano - Casanova [03:09]
9. Rondo Veneziano - Calli segrete [03:30]
10. Rondo Veneziano - Don Giovanni [07:25]
11. Rondo Veneziano - Donna Lucrezia [03:01]
12. Rondo Veneziano - Reverie [03:06]

CD3

1. Rondo Veneziano - Carrousel [03:34]
2. Rondo Veneziano - Giochi d'acqua [03:44]
3. Rondo Veneziano - Gondole sulla laguna [03:15]
4. Rondo Veneziano - Blu oltremare [04:07]
5. Rondo Veneziano - Canal Grande [02:37]
6. Rondo Veneziano - La Serenissima [02:15]
7. Rondo Veneziano - Larmes de pluie [04:35]
8. Rondo Veneziano - Laguna incantata [03:56]
9. Rondo Veneziano - Litorali [05:13]
10. Rondo Veneziano - Nettuno [03:10]
11. Rondo Veneziano - Voli e vele [03:08]
12. Rondo Veneziano - Riverberi [03:11]
Доп. информация:

EACCD1

Estrazione file di log EAC da 15. Dicembre 2006, 0:08 per CD
Rondт Veneziano / Rondт Veneziano 1
Unitа predefinita: HL-DT-STCD-RW GCE-8480B Adapter: 2 ID: 1
Modalitа di lettura: Sicuro con NO C2, Lettura Accurata, Disattiva Cache
Correzione offset di lettura:6
Sovrascrivi anche nel Lead-In e Lead-Out : No
Formato di destinazione scelto: Routine interne WAV
44.100 Hz; 16 Bit; Stereo
Altre opzioni :
Riempi sample offset mancanti con silenzio : Sм
Rimuovi blocchi di silezio ad inizio e fine : No
Interfaccia esterna ASPI (installata)
Stato intervallo ed errori
Intervallo selezionato
Nome file E:\Laboratorio Musicale\Lossless\Rondт Veneziano - Rondт Veneziano 1.wav
Livello di picco 99.9 %
Qualitа intervallo 100.0 %
CRC D2179F64
Copia corretta
Non sono stati riscontrati errori
Fine del resoconto di stato
==================================
Log translation at http://eachelper.uphero.com/
==================================
EAC extraction logfile from 15. December 2006, 0:08 for CD
Rondт Veneziano / Rondт Veneziano 1
Used drive : HL-DT-STCD-RW GCE-8480B Adapter: 2 ID: 1
Read mode : Secure with NO C2, accurate stream, disable cache
Read offset correction : 6
Overread into Lead-In and Lead-Out : No
Used output format : Internal WAV Routines
44.100 Hz; 16 Bit; Stereo
Other options :
Fill up missing offset samples with silence : Yes
Delete leading and trailing silent blocks : No
Installed external ASPI interface
Range status and errors
Selected range
Filename E:\Laboratorio Musicale\Lossless\Rondт Veneziano - Rondт Veneziano 1.wav
Peak level 99.9 %
Range quality 100.0 %
CRC D2179F64
Copy OK
No errors occured
End of status report

CD2

Estrazione file di log EAC da 14. Dicembre 2006, 23:44 per CD
Rondт Veneziano / Rondт Veneziano 2
Unitа predefinita: HL-DT-STCD-RW GCE-8480B Adapter: 2 ID: 1
Modalitа di lettura: Sicuro con NO C2, Lettura Accurata, Disattiva Cache
Correzione offset di lettura:6
Sovrascrivi anche nel Lead-In e Lead-Out : No
Formato di destinazione scelto: Routine interne WAV
44.100 Hz; 16 Bit; Stereo
Altre opzioni :
Riempi sample offset mancanti con silenzio : Sм
Rimuovi blocchi di silezio ad inizio e fine : No
Interfaccia esterna ASPI (installata)
Stato intervallo ed errori
Intervallo selezionato
Nome file E:\Laboratorio Musicale\Lossless\Rondт Veneziano - Rondт Veneziano 2.wav
Livello di picco 99.9 %
Qualitа intervallo 100.0 %
CRC 56762564
Copia corretta
Non sono stati riscontrati errori
Fine del resoconto di stato
==================================
Log translation at http://eachelper.uphero.com/
==================================
EAC extraction logfile from 14. December 2006, 23:44 for CD
Rondт Veneziano / Rondт Veneziano 2
Used drive : HL-DT-STCD-RW GCE-8480B Adapter: 2 ID: 1
Read mode : Secure with NO C2, accurate stream, disable cache
Read offset correction : 6
Overread into Lead-In and Lead-Out : No
Used output format : Internal WAV Routines
44.100 Hz; 16 Bit; Stereo
Other options :
Fill up missing offset samples with silence : Yes
Delete leading and trailing silent blocks : No
Installed external ASPI interface
Range status and errors
Selected range
Filename E:\Laboratorio Musicale\Lossless\Rondт Veneziano - Rondт Veneziano 2.wav
Peak level 99.9 %
Range quality 100.0 %
CRC 56762564
Copy OK
No errors occured
End of status report

CD3

Estrazione file di log EAC da 14. Dicembre 2006, 23:53 per CD
Rondт Veneziano / Rondт Veneziano 3
Unitа predefinita: HL-DT-STCD-RW GCE-8480B Adapter: 2 ID: 1
Modalitа di lettura: Sicuro con NO C2, Lettura Accurata, Disattiva Cache
Correzione offset di lettura:6
Sovrascrivi anche nel Lead-In e Lead-Out : No
Formato di destinazione scelto: Routine interne WAV
44.100 Hz; 16 Bit; Stereo
Altre opzioni :
Riempi sample offset mancanti con silenzio : Sм
Rimuovi blocchi di silezio ad inizio e fine : No
Interfaccia esterna ASPI (installata)
Stato intervallo ed errori
Intervallo selezionato
Nome file E:\Laboratorio Musicale\Lossless\Rondт Veneziano - Rondт Veneziano 3.wav
Livello di picco 99.9 %
Qualitа intervallo 100.0 %
CRC 8F5FF11E
Copia corretta
Non sono stati riscontrati errori
Fine del resoconto di stato
==================================
Log translation at http://eachelper.uphero.com/
==================================
EAC extraction logfile from 14. December 2006, 23:53 for CD
Rondт Veneziano / Rondт Veneziano 3
Used drive : HL-DT-STCD-RW GCE-8480B Adapter: 2 ID: 1
Read mode : Secure with NO C2, accurate stream, disable cache
Read offset correction : 6
Overread into Lead-In and Lead-Out : No
Used output format : Internal WAV Routines
44.100 Hz; 16 Bit; Stereo
Other options :
Fill up missing offset samples with silence : Yes
Delete leading and trailing silent blocks : No
Installed external ASPI interface
Range status and errors
Selected range
Filename E:\Laboratorio Musicale\Lossless\Rondт Veneziano - Rondт Veneziano 3.wav
Peak level 99.9 %
Range quality 100.0 %
CRC 8F5FF11E
Copy OK
No errors occured
End of status report

CUEToolsCD1

[CUETools log; Date: 30.04.2011 15:24:30; Version: 2.1.1]
[AccurateRip ID: 0011c9a1-00a5f4da-9e09710c] found.
Track [ CRC ] Status
01 [4931fa82] (0/1) No match
02 [3d560a25] (0/1) No match
03 [90266cf6] (0/1) No match
04 [77fe613d] (0/1) No match
05 [75e67a96] (0/1) No match
06 [07923018] (0/1) No match
07 [910d4c6f] (0/1) No match
08 [d487444a] (0/1) No match
09 [453b46f9] (0/1) No match
10 [aabdd959] (0/1) No match
11 [fb2ab1a1] (0/1) No match
12 [538cf6fd] (0/1) No match
Offsetted by -599:
01 [35893798] (1/1) Accurately ripped
02 [276d2301] (1/1) Accurately ripped
03 [25100c66] (1/1) Accurately ripped
04 [779e89a2] (1/1) Accurately ripped
05 [fc2ea543] (1/1) Accurately ripped
06 [5ec23340] (1/1) Accurately ripped
07 [1eba5e6a] (1/1) Accurately ripped
08 [32a64f6f] (1/1) Accurately ripped
09 [9b37302f] (1/1) Accurately ripped
10 [6cd0a73a] (1/1) Accurately ripped
11 [621c4460] (1/1) Accurately ripped
12 [e005e010] (1/1) Accurately ripped
Track Peak [ CRC32 ] [W/O NULL]
-- 99,9 [D2179F64] [8B190722]
01 99,9 [191ABA95] [7AF5E7E0]
02 99,9 [019BB41F] [5512B3EF]
03 99,9 [75133352] [D09DE8DB]
04 99,9 [F9B9C1C0] [D9538E60]
05 99,9 [B8BD91CD] [97F2FE85]
06 99,9 [27AF536B] [CB2522EB]
07 99,9 [805F6C68] [2E50B208]
08 99,9 [EA7EE1D9] [8F78ABED]
09 99,9 [857F7A47] [21E0DD18]
10 99,9 [7A99CEAB] [B2969D89]
11 99,9 [0E40E721] [B746152A]
12 99,9 [52D84B8F] [99DDBE03]

CD2

[CUETools log; Date: 30.04.2011 15:33:05; Version: 2.1.1]
[AccurateRip ID: 001154f9-00a2fba8-9309950c] found.
Track [ CRC ] Status
01 [f658c756] (1/1) Accurately ripped
02 [f273ec22] (1/1) Accurately ripped
03 [6f387e2d] (1/1) Accurately ripped
04 [fd1dd5ad] (1/1) Accurately ripped
05 [771c82af] (1/1) Accurately ripped
06 [3236560b] (1/1) Accurately ripped
07 [e8f3f04e] (1/1) Accurately ripped
08 [a1f9cc9d] (1/1) Accurately ripped
09 [0f536356] (1/1) Accurately ripped
10 [b8738185] (1/1) Accurately ripped
11 [92f3e1ea] (1/1) Accurately ripped
12 [3123fa0a] (1/1) Accurately ripped
Track Peak [ CRC32 ] [W/O NULL]
-- 99,9 [56762564] [400209C4]
01 99,9 [A8393EB7] [8B2441A8]
02 99,9 [C7A37078] [86C66921]
03 99,9 [FF4834BF] [D2EE376E]
04 99,9 [5A4B99EA] [0DE6AD1D]
05 99,9 [29B6FC31] [1F1BE059]
06 99,9 [A32D25B8] [B8161EDF]
07 99,9 [AB67EE06] [AE7A0744]
08 99,9 [56E07B67] [37ED5802]
09 99,9 [B1D6DDAE] [EDECFD6C]
10 99,9 [D3AE7474] [4621C528]
11 99,9 [B32E5631] [009CB344]
12 99,9 [8FF21860] [9B8525AD]

CD3

[CUETools log; Date: 30.04.2011 16:45:42; Version: 2.1.1]
[AccurateRip ID: 00131188-00b28ba6-8d0a0b0c] found.
Track [ CRC ] Status
01 [0e6c1a33] (1/1) Accurately ripped
02 [b78f9f8e] (1/1) Accurately ripped
03 [bd90a3ac] (1/1) Accurately ripped
04 [df711855] (1/1) Accurately ripped
05 [f72142d8] (1/1) Accurately ripped
06 [313d5588] (1/1) Accurately ripped
07 [7b993742] (1/1) Accurately ripped
08 [85970cb2] (1/1) Accurately ripped
09 [699a7b1f] (1/1) Accurately ripped
10 [2621922e] (1/1) Accurately ripped
11 [e5807d23] (1/1) Accurately ripped
12 [f4b56f74] (1/1) Accurately ripped
Track Peak [ CRC32 ] [W/O NULL]
-- 99,9 [8F5FF11E] [D131BA6F]
01 99,9 [ED511838] [606E226A]
02 99,9 [14DF49B1] [9CF8D137]
03 99,9 [BCB13101] [A77563D9]
04 99,9 [F350DC00] [71C306C9]
05 99,9 [16279C69] [DE7BB65B]
06 99,9 [08407E65] [F23CDB03]
07 99,9 [723E18F7] [49473CAF]
08 99,9 [43C575D3] [F62D0616]
09 99,9 [15DA712B] [AFF8365B]
10 99,9 [22960242] [DD49600E]
11 99,9 [43FD4578] [D4F0A1C2]
12 99,9 [EFC36FA0] [03071E5C]

auCDtect Task Manager

-----------------------
DON'T MODIFY THIS FILE
-----------------------
PERFORMER: auCDtect Task Manager, ver. 1.0.0 Stable build 1.0.0.0
Copyright (c) 2008, 2009 y-soft. All rights reserved
http://y-soft.110mb.com
ANALYZER: auCDtect: CD records authenticity detector, version 0.8.2
Copyright (c) 2004 Oleg Berngardt. All rights reserved.
Copyright (c) 2004 Alexander Djourik. All rights reserved.
FILE: RondХ Veneziano - RondХ Veneziano 1.flac
Size: 301112715 Hash: B95EE6A8CEDC634541C3B632D779959C Accuracy: -m0
Conclusion: CDDA 100%
Signature: 199256290706C1BBD1DCF05F7012401183A4A8FC
FILE: RondХ Veneziano - RondХ Veneziano 2.flac
Size: 293954597 Hash: EB7438DBAC316357B98306166C4A2C2C Accuracy: -m0
Conclusion: CDDA 99%
Signature: 4B2041B4750E17A30CB4D0B0EA4C3F4D8FC8D011
FILE: RondХ Veneziano - RondХ Veneziano 3.flac
Size: 316506428 Hash: D4E65A5709E334FC85526F996B39D756 Accuracy: -m0
Conclusion: CDDA 100%
Signature: 57C1F5802E0A64C3728010F080C720FF3753D4A8



Показать сообщения:    

Текущее время: 06-Дек 05:36

Часовой пояс: UTC + 3


Вы не можете начинать темы
Вы не можете отвечать на сообщения
Вы не можете редактировать свои сообщения
Вы не можете удалять свои сообщения
Вы не можете голосовать в опросах
Вы не можете прикреплять файлы к сообщениям
Вы не можете скачивать файлы