(Classical / Electronic) Maksim Mrvica - A New World - 2005 [FLAC (tracks+.cue) lossless]


 

[Цитировать]

Maksim Mrvica - A New World- Жанр: Classical / Electronic
Год выпуска диска: 2005
Лейбл: EMI
Аудио кодек: FLAC
Тип рипа: tracks+.cue
Битрейт аудио: lossless
Продолжительность: 01:03:58
-01 - New World Concerto (04:21)
02 - Nostradamus (03:40)
03 - Dido's Lament (03:24)
04 - Tosca (03:08)
05 - Desert Skies (04:02)
06 - Intermezzo (03:56)
07 - Somewhere In Time / The Old Woman (05:58)
08 - Ride Of The Valkyries (04:40)
09 - Still Waters (03:39)
10 - Blue Balloon (03:52)
11 - Mojito (03:13)
12 - The Flower Duet (03:16)
13 - Deborah's Theme (04:59)
14 - Kolibre (Backing Track) (03:53)
15 - Claudine (Backing Track) (04:34)
16 - Nostradamus (Backing Track) (03:22)
-Источник: what.cd

LOG

Exact Audio Copy V1.0 beta 1 from 15. November 2010
EAC extraction logfile from 23. March 2011, 10:03
Maksim Mrvica / A New World
Used drive : hp CDDVDW TS-H653R Adapter: 1 ID: 0
Read mode : SecureUtilize accurate stream : YesDefeat audio cache : YesMake use of C2 pointers : No
Read offset correction : 6Overread into Lead-In and Lead-Out : NoFill up missing offset samples with silence : YesDelete leading and trailing silent blocks : NoNull samples used in CRC calculations : YesUsed interface : Native Win32 interface for Win NT & 2000Gap handling : Appended to previous track
Used output format : User Defined EncoderSelected bitrate : 320 kBit/sQuality : HighAdd ID3 tag : NoCommand line compressor : C:\Program Files\Exact Audio Copy\Flac\flac.exeAdditional command line options : -V -8 -T "artist=%a" -T "title=%t" -T "album=%g" -T "date=%y" -T "tracknumber=%n" -T "genre=%m" %s
TOC of the extracted CD
Track | Start | Length | Start sector | End sector --------------------------------------------------------- 1 | 0:00.00 | 4:21.27 | 0 | 19601 2 | 4:21.27 | 3:39.59 | 19602 | 36085 3 | 8:01.11 | 3:24.02 | 36086 | 51387 4 | 11:25.13 | 3:07.70 | 51388 | 65482 5 | 14:33.08 | 4:02.34 | 65483 | 83666 6 | 18:35.42 | 3:55.65 | 83667 | 101356 7 | 22:31.32 | 5:58.16 | 101357 | 128222 8 | 28:29.48 | 4:40.18 | 128223 | 149240 9 | 33:09.66 | 3:38.72 | 149241 | 165662 10 | 36:48.63 | 3:52.26 | 165663 | 183088 11 | 40:41.14 | 3:13.29 | 183089 | 197592 12 | 43:54.43 | 3:15.57 | 197593 | 212274 13 | 47:10.25 | 4:58.38 | 212275 | 234662 14 | 52:08.63 | 3:53.28 | 234663 | 252165 15 | 56:02.16 | 4:33.58 | 252166 | 272698 16 | 60:35.74 | 3:22.30 | 272699 | 287878 17 | 66:30.29 | 12:49.00 | 299279 | 356953
Track 1
Filename D:\Dokumenti\Ripovi\Maksim Mrvica - 2005 - A New World [FLAC]\01 - New World Concerto.wav
Pre-gap length 0:00:02.00
Peak level 99.1 % Extraction speed 4.9 X Track quality 100.0 % Test CRC 95E25612 Copy CRC 95E25612 Accurately ripped (confidence 2) [6BDBD550] Copy OK
Track 2
Filename D:\Dokumenti\Ripovi\Maksim Mrvica - 2005 - A New World [FLAC]\02 - Nostradamus.wav
Pre-gap length 0:00:01.66
Peak level 99.2 % Extraction speed 5.2 X Track quality 100.0 % Test CRC 3E5DF84E Copy CRC 3E5DF84E Accurately ripped (confidence 2) [604A60B9] Copy OK
Track 3
Filename D:\Dokumenti\Ripovi\Maksim Mrvica - 2005 - A New World [FLAC]\03 - Dido's Lament.wav
Pre-gap length 0:00:00.30
Peak level 99.2 % Extraction speed 5.5 X Track quality 100.0 % Test CRC A11BCB5C Copy CRC A11BCB5C Accurately ripped (confidence 2) [67F70A5E] Copy OK
Track 4
Filename D:\Dokumenti\Ripovi\Maksim Mrvica - 2005 - A New World [FLAC]\04 - Tosca.wav
Pre-gap length 0:00:00.45
Peak level 99.1 % Extraction speed 4.3 X Track quality 99.9 % Test CRC 23518F20 Copy CRC 23518F20 Accurately ripped (confidence 2) [FD8713F5] Copy OK
Track 5
Filename D:\Dokumenti\Ripovi\Maksim Mrvica - 2005 - A New World [FLAC]\05 - Desert Skies.wav
Pre-gap length 0:00:02.22
Peak level 99.2 % Extraction speed 6.3 X Track quality 100.0 % Test CRC D55680C5 Copy CRC D55680C5 Accurately ripped (confidence 2) [755D960D] Copy OK
Track 6
Filename D:\Dokumenti\Ripovi\Maksim Mrvica - 2005 - A New World [FLAC]\06 - Intermezzo.wav
Pre-gap length 0:00:01.70
Peak level 99.2 % Extraction speed 6.6 X Track quality 100.0 % Test CRC EF785D01 Copy CRC EF785D01 Accurately ripped (confidence 2) [389F5328] Copy OK
Track 7
Filename D:\Dokumenti\Ripovi\Maksim Mrvica - 2005 - A New World [FLAC]\07 - Somewhere In Time , The Old Woman.wav
Pre-gap length 0:00:01.81
Peak level 99.2 % Extraction speed 7.3 X Track quality 100.0 % Test CRC D509AF04 Copy CRC D509AF04 Accurately ripped (confidence 2) [5B4316D8] Copy OK
Track 8
Filename D:\Dokumenti\Ripovi\Maksim Mrvica - 2005 - A New World [FLAC]\08 - Ride Of The Valkyries.wav
Pre-gap length 0:00:01.48
Peak level 99.2 % Extraction speed 6.0 X Track quality 99.9 % Test CRC CFDC2FBF Copy CRC CFDC2FBF Accurately ripped (confidence 2) [A0B2A2C8] Copy OK
Track 9
Filename D:\Dokumenti\Ripovi\Maksim Mrvica - 2005 - A New World [FLAC]\09 - Still Waters.wav
Pre-gap length 0:00:02.56
Peak level 99.1 % Extraction speed 7.4 X Track quality 100.0 % Test CRC 1E42909E Copy CRC 1E42909E Accurately ripped (confidence 2) [1BD8D1B0] Copy OK
Track 10
Filename D:\Dokumenti\Ripovi\Maksim Mrvica - 2005 - A New World [FLAC]\10 - Blue Balloon.wav
Pre-gap length 0:00:04.26
Peak level 99.1 % Extraction speed 7.8 X Track quality 100.0 % Test CRC 147E4D2C Copy CRC 147E4D2C Accurately ripped (confidence 2) [17833C87] Copy OK
Track 11
Filename D:\Dokumenti\Ripovi\Maksim Mrvica - 2005 - A New World [FLAC]\11 - Mojito.wav
Pre-gap length 0:00:03.05
Peak level 99.1 % Extraction speed 8.0 X Track quality 100.0 % Test CRC DC4D5811 Copy CRC DC4D5811 Accurately ripped (confidence 2) [EB27CC42] Copy OK
Track 12
Filename D:\Dokumenti\Ripovi\Maksim Mrvica - 2005 - A New World [FLAC]\12 - The Flower Duet.wav
Pre-gap length 0:00:01.32
Peak level 99.1 % Extraction speed 8.1 X Track quality 100.0 % Test CRC BA7EE30F Copy CRC BA7EE30F Accurately ripped (confidence 2) [9F9A4FC8] Copy OK
Track 13
Filename D:\Dokumenti\Ripovi\Maksim Mrvica - 2005 - A New World [FLAC]\13 - Deborah's Theme.wav
Pre-gap length 0:00:04.21
Peak level 99.2 % Extraction speed 7.1 X Track quality 99.9 % Test CRC 363F4CD5 Copy CRC 363F4CD5 Accurately ripped (confidence 2) [A4474938] Copy OK
Track 14
Filename D:\Dokumenti\Ripovi\Maksim Mrvica - 2005 - A New World [FLAC]\14 - Kolibre (Backing Track).wav
Pre-gap length 0:00:19.81
Peak level 99.2 % Extraction speed 8.9 X Track quality 100.0 % Test CRC 0C6F5710 Copy CRC 0C6F5710 Accurately ripped (confidence 2) [9FA3929F] Copy OK
Track 15
Filename D:\Dokumenti\Ripovi\Maksim Mrvica - 2005 - A New World [FLAC]\15 - Claudine (Backing Track).wav
Pre-gap length 0:00:06.01
Peak level 80.1 % Extraction speed 9.3 X Track quality 100.0 % Test CRC F4575F31 Copy CRC F4575F31 Accurately ripped (confidence 2) [6E99D11B] Copy OK
Track 16
Filename D:\Dokumenti\Ripovi\Maksim Mrvica - 2005 - A New World [FLAC]\16 - Nostradamus (Backing Track).wav
Pre-gap length 0:00:01.82
Peak level 99.2 % Extraction speed 9.2 X Track quality 100.0 % Test CRC 332FD026 Copy CRC 332FD026 Accurately ripped (confidence 2) [4C3B87D4] Copy OK
All tracks accurately ripped
No errors occurred
End of status report
==== Log checksum 86B9410C2DFEA2DD3A78B94AAF307348DC7BD44CE7EAEEB8798E5AFA9C34BE39 ====

CUE

REM GENRE CrossoverREM DATE 2005REM DISCID EC129711REM COMMENT "ExactAudioCopy v1.0b1"PERFORMER "Maksim Mrvica"TITLE "A New World"FILE "01 - New World Concerto.wav" WAVE TRACK 01 AUDIO TITLE "New World Concerto" PERFORMER "Maksim Mrvica" INDEX 01 00:00:00 TRACK 02 AUDIO TITLE "Nostradamus" PERFORMER "Maksim Mrvica" INDEX 00 04:19:52FILE "02 - Nostradamus.wav" WAVE INDEX 01 00:00:00 TRACK 03 AUDIO TITLE "Dido's Lament" PERFORMER "Maksim Mrvica" INDEX 00 03:39:36FILE "03 - Dido's Lament.wav" WAVE INDEX 01 00:00:00 TRACK 04 AUDIO TITLE "Tosca" PERFORMER "Maksim Mrvica" INDEX 00 03:23:43FILE "04 - Tosca.wav" WAVE INDEX 01 00:00:00 TRACK 05 AUDIO TITLE "Desert Skies" PERFORMER "Maksim Mrvica" INDEX 00 03:05:53FILE "05 - Desert Skies.wav" WAVE INDEX 01 00:00:00 TRACK 06 AUDIO TITLE "Intermezzo" PERFORMER "Maksim Mrvica" INDEX 00 04:00:56FILE "06 - Intermezzo.wav" WAVE INDEX 01 00:00:00 TRACK 07 AUDIO TITLE "Somewhere In Time / The Old Woman" PERFORMER "Maksim Mrvica" INDEX 00 03:54:04FILE "07 - Somewhere In Time , The Old Woman.wav" WAVE INDEX 01 00:00:00 TRACK 08 AUDIO TITLE "Ride Of The Valkyries" PERFORMER "Maksim Mrvica" INDEX 00 05:56:55FILE "08 - Ride Of The Valkyries.wav" WAVE INDEX 01 00:00:00 TRACK 09 AUDIO TITLE "Still Waters" PERFORMER "Maksim Mrvica" INDEX 00 04:37:51FILE "09 - Still Waters.wav" WAVE INDEX 01 00:00:00 TRACK 10 AUDIO TITLE "Blue Balloon" PERFORMER "Maksim Mrvica" INDEX 00 03:34:52FILE "10 - Blue Balloon.wav" WAVE INDEX 01 00:00:00 TRACK 11 AUDIO TITLE "Mojito" PERFORMER "Maksim Mrvica" INDEX 00 03:49:22FILE "11 - Mojito.wav" WAVE INDEX 01 00:00:00 TRACK 12 AUDIO TITLE "The Flower Duet" PERFORMER "Maksim Mrvica" INDEX 00 03:12:05FILE "12 - The Flower Duet.wav" WAVE INDEX 01 00:00:00 TRACK 13 AUDIO TITLE "Deborah's Theme" PERFORMER "Maksim Mrvica" INDEX 00 03:11:41FILE "13 - Deborah's Theme.wav" WAVE INDEX 01 00:00:00 TRACK 14 AUDIO TITLE "Kolibre (Backing Track)" PERFORMER "Maksim Mrvica" INDEX 00 04:38:52FILE "14 - Kolibre (Backing Track).wav" WAVE INDEX 01 00:00:00 TRACK 15 AUDIO TITLE "Claudine (Backing Track)" PERFORMER "Maksim Mrvica" INDEX 00 03:47:27FILE "15 - Claudine (Backing Track).wav" WAVE INDEX 01 00:00:00 TRACK 16 AUDIO TITLE "Nostradamus (Backing Track)" PERFORMER "Maksim Mrvica" INDEX 00 04:31:71FILE "16 - Nostradamus (Backing Track).wav" WAVE INDEX 01 00:00:00
-



Показать сообщения:    

Текущее время: 07-Дек 17:31

Часовой пояс: UTC + 3


Вы не можете начинать темы
Вы не можете отвечать на сообщения
Вы не можете редактировать свои сообщения
Вы не можете удалять свои сообщения
Вы не можете голосовать в опросах
Вы не можете прикреплять файлы к сообщениям
Вы не можете скачивать файлы