(Violin/Cello) The String Quartet Tribute to Nirvana`s Nevermind - 2005, FLAC (image+.cue), lossless


 

[Цитировать]

The String Quartet Tribute to Nirvana`s Nevermind Жанр: Violin/Cello
Год выпуска диска: 2005
Страна-производитель диска: США
Издатель: Vitamin Records
Номер по каталогу: VIT-8865
Аудио кодек: FLAC
Тип рипа: image+.cue
Битрейт аудио: lossless
Продолжительность: 41:58
Сканы в содержимом раздачи: jpg, 600dpi
Треклист:
01. Smells Like Teen Spirit (5:00)
02. In Bloom (4:22)
03. Come As You Are (3:45)
04. Breed (2:56)
05. Lithium (4:17)
06. Polly (3:03)
07. Territorial Pissings (2:06)
08. Drain You (3:35)
09. Lounge Act (2:34)
10. Stay Away (3:08)
11. On a Plain (3:41)
12. Something in the Way (3:33)

EAC log

Exact Audio Copy V0.99 prebeta 5 from 4. May 2009
Отчёт EAC об извлечении, выполненном 1. декабря 2010, 23:47
The String Quartet / Tribute to Nevermind
Дисковод: ASUS DRW-24B1ST Adapter: 0 ID: 2
Режим чтения : Достоверность
Использование точного потока : Да
Отключение кэша аудио : Да
Использование указателей C2 : Нет
Коррекция смещения при чтении : 6
Способность читать области Lead-in и Lead-out : Нет
Заполнение пропущенных сэмплов тишиной : Да
Удаление блоков с тишиной в начале и конце : Нет
При вычислениях CRC использовались нулевые сэмплы : Да
Интерфейс : Встроенный Win32-интерфейс для Win NT/2000
Выходной формат : Внутренние WAV-операции
Формат сэмплов : 44.100 Гц; 16 бит; стерео
TOC извлечённого CD
Трек | Старт | Длительность | Начальный сектор | Конечный сектор
---------------------------------------------------------------------
1 | 0:00.00 | 4:59.52 | 0 | 22476
2 | 4:59.52 | 4:22.11 | 22477 | 42137
3 | 9:21.63 | 3:44.58 | 42138 | 58995
4 | 13:06.46 | 2:55.51 | 58996 | 72171
5 | 16:02.22 | 4:16.61 | 72172 | 91432
6 | 20:19.08 | 3:03.37 | 91433 | 105194
7 | 23:22.45 | 2:05.39 | 105195 | 114608
8 | 25:28.09 | 3:35.29 | 114609 | 130762
9 | 29:03.38 | 2:33.50 | 130763 | 142287
10 | 31:37.13 | 3:07.47 | 142288 | 156359
11 | 34:44.60 | 3:41.00 | 156360 | 172934
12 | 38:25.60 | 3:33.13 | 172935 | 188922
Характеристики диапазона извлечения и сообщения об ошибках
Выбранный диапазон
Имя файла E:\Music\The String Quartet Tribute to Nirvana`s Nevermind - 2005\The String Quartet Tribute to Nirvana`s Nevermind - 2005 (wav)\The String Quartet - Tribute to Nevermind.wav
Пиковый уровень 99.7 %
Качество диапазона 100.0 %
CRC теста FBE4EB06
CRC копии FBE4EB06
Копирование... OK
Ошибок не произошло
AccurateRip: сводка
Трек 1 точное извлечение (доверие 2) [0E083F1D]
Трек 2 точное извлечение (доверие 2) [8F143208]
Трек 3 точное извлечение (доверие 2) [6F2DF329]
Трек 4 точное извлечение (доверие 2) [A0335E53]
Трек 5 точное извлечение (доверие 2) [C947490A]
Трек 6 точное извлечение (доверие 2) [7F058EA1]
Трек 7 точное извлечение (доверие 2) [A1656BE2]
Трек 8 точное извлечение (доверие 2) [59474DAB]
Трек 9 точное извлечение (доверие 2) [26354C88]
Трек 10 точное извлечение (доверие 2) [EBEDA6F9]
Трек 11 точное извлечение (доверие 2) [274A4AD5]
Трек 12 точное извлечение (доверие 2) [136CDF1D]
Все треки извлечены точно
Конец отчёта

Audiochecker log

AUDIOCHECKER v2.0 beta (build 457) - by Dester - opdester@freemail.hu
~~~~~~~~~~~~~~~~~~~~~~~~~~~~~~~~~~
-=== DO NOT EDIT THIS FILE! ===-
Path: ...\The String Quartet Tribute to Nirvana`s Nevermind - 2005 (flac)
1 -=- The String Quartet - Tribute to Nevermind.flac -=- CDDA (100%)
48728836



Показать сообщения:    

Текущее время: 04-Дек 00:53

Часовой пояс: UTC + 3


Вы не можете начинать темы
Вы не можете отвечать на сообщения
Вы не можете редактировать свои сообщения
Вы не можете удалять свои сообщения
Вы не можете голосовать в опросах
Вы не можете прикреплять файлы к сообщениям
Вы не можете скачивать файлы