(Classical / Electronic) Maksim Mrvica - Greatest Maksim - 2009 [FLAC (tracks+.cue) lossless]


 

[Цитировать]

Maksim Mrvica - Greatest Maksim- Жанр: Classical / Electronic
Год выпуска диска: 2009
Лейбл: EMI Classics (TOCP-70484)
Аудио кодек: FLAC
Тип рипа: tracks+.cue
Битрейт аудио: lossless
Продолжительность: 01:11:16
-01 - Wonderland (03:42)
02 - Kolibre (03:54)
03 - Cubana (03:12)
04 - The Gypsy Maid (from Il Trovatore) (03:41)
05 - Requiem (03:01)
06 - New World Concerto (04:23)
07 - Exodus (03:12)
08 - Bohemian Rhapsody (06:47)
09 - Claudine (04:32)
10 - Intermezzo (from Cavelleria Rusticana) (03:58)
11 - Sarabande (03:40)
12 - Totentanz (04:46)
13 - Merry Christmas Mr. Lawrence (03:56)
14 - Dido's Lament (from Dido and Aeneas) (03:26)
15 - Nostradamus (03:42)
16 - Amazonic (03:25)
17 - Croatian Rhapsody (03:34)
18 - The Flight of Bumble-Bee (04:26)
-Источник: what.cd

LOG

Exact Audio Copy V0.99 prebeta 4 from 23. January 2008
EAC extraction logfile from 20. March 2009, 11:32
Maksim Mrvica / Greatest Maksim
Used drive : TSSTcorpCDDVDW SH-S203B Adapter: 4 ID: 0
Read mode : SecureUtilize accurate stream : YesDefeat audio cache : YesMake use of C2 pointers : No
Read offset correction : 6Overread into Lead-In and Lead-Out : NoFill up missing offset samples with silence : YesDelete leading and trailing silent blocks : NoNull samples used in CRC calculations : YesUsed interface : Native Win32 interface for Win NT & 2000Gap handling : Appended to previous track
Used output format : User Defined EncoderSelected bitrate : 320 kBit/sQuality : HighAdd ID3 tag : YesCommand line compressor : D:\Program Files\Exact Audio Copy\Flac\flac.exeAdditional command line options : -V -8 -T "artist=%a" -T "title=%t" -T "album=%g" -T "date=%y" -T "tracknumber=%n" -T "genre=%m" %s
TOC of the extracted CD
Track | Start | Length | Start sector | End sector --------------------------------------------------------- 1 | 0:00.00 | 3:42.20 | 0 | 16669 2 | 3:42.20 | 3:53.59 | 16670 | 34203 3 | 7:36.04 | 3:11.60 | 34204 | 48588 4 | 10:47.64 | 3:40.59 | 48589 | 65147 5 | 14:28.48 | 3:00.50 | 65148 | 78697 6 | 17:29.23 | 4:23.27 | 78698 | 98449 7 | 21:52.50 | 3:12.05 | 98450 | 112854 8 | 25:04.55 | 6:46.60 | 112855 | 143364 9 | 31:51.40 | 4:32.02 | 143365 | 163766 10 | 36:23.42 | 3:57.65 | 163767 | 181606 11 | 40:21.32 | 3:39.73 | 181607 | 198104 12 | 44:01.30 | 4:46.30 | 198105 | 219584 13 | 48:47.60 | 3:55.40 | 219585 | 237249 14 | 52:43.25 | 3:26.02 | 237250 | 252701 15 | 56:09.27 | 3:41.59 | 252702 | 269335 16 | 59:51.11 | 3:24.64 | 269336 | 284699 17 | 63:16.00 | 3:34.27 | 284700 | 300776 18 | 66:50.27 | 4:26.07 | 300777 | 320733
Track 1
Filename D:\Documents and Settings\Trauma\My Documents\My Music\Бчёі АЪ·б\Maksim Mrvica - Greates Maksim (2009)\01 - Wonderland.wav
Pre-gap length 0:00:02.00
Peak level 99.1 % Track quality 100.0 % Test CRC EA5A7CC9 Copy CRC EA5A7CC9 Copy OK
Track 2
Filename D:\Documents and Settings\Trauma\My Documents\My Music\Бчёі АЪ·б\Maksim Mrvica - Greates Maksim (2009)\02 - Kolibre.wav
Pre-gap length 0:00:02.00
Peak level 99.5 % Track quality 99.9 % Test CRC D4CC783A Copy CRC D4CC783A Copy OK
Track 3
Filename D:\Documents and Settings\Trauma\My Documents\My Music\Бчёі АЪ·б\Maksim Mrvica - Greates Maksim (2009)\03 - Cubana.wav
Pre-gap length 0:00:02.00
Peak level 99.1 % Track quality 100.0 % Test CRC E782256B Copy CRC E782256B Copy OK
Track 4
Filename D:\Documents and Settings\Trauma\My Documents\My Music\Бчёі АЪ·б\Maksim Mrvica - Greates Maksim (2009)\04 - The Gypsy Maid (from Il Trovatore).wav
Pre-gap length 0:00:02.00
Peak level 99.2 % Track quality 100.0 % Test CRC DF71377B Copy CRC DF71377B Copy OK
Track 5
Filename D:\Documents and Settings\Trauma\My Documents\My Music\Бчёі АЪ·б\Maksim Mrvica - Greates Maksim (2009)\05 - Requiem.wav
Pre-gap length 0:00:02.00
Peak level 99.2 % Track quality 99.9 % Test CRC 58E30AE6 Copy CRC 58E30AE6 Copy OK
Track 6
Filename D:\Documents and Settings\Trauma\My Documents\My Music\Бчёі АЪ·б\Maksim Mrvica - Greates Maksim (2009)\06 - New World Concerto.wav
Pre-gap length 0:00:02.00
Peak level 99.1 % Track quality 100.0 % Test CRC E4ECE437 Copy CRC E4ECE437 Copy OK
Track 7
Filename D:\Documents and Settings\Trauma\My Documents\My Music\Бчёі АЪ·б\Maksim Mrvica - Greates Maksim (2009)\07 - Exodus.wav
Pre-gap length 0:00:02.00
Peak level 99.1 % Track quality 100.0 % Test CRC A691F216 Copy CRC A691F216 Copy OK
Track 8
Filename D:\Documents and Settings\Trauma\My Documents\My Music\Бчёі АЪ·б\Maksim Mrvica - Greates Maksim (2009)\08 - Bohemian Rhapsody.wav
Pre-gap length 0:00:02.00
Peak level 93.1 % Track quality 100.0 % Test CRC 51519F6D Copy CRC 51519F6D Copy OK
Track 9
Filename D:\Documents and Settings\Trauma\My Documents\My Music\Бчёі АЪ·б\Maksim Mrvica - Greates Maksim (2009)\09 - Claudine.wav
Pre-gap length 0:00:02.00
Peak level 84.2 % Track quality 100.0 % Test CRC CA906DAD Copy CRC CA906DAD Copy OK
Track 10
Filename D:\Documents and Settings\Trauma\My Documents\My Music\Бчёі АЪ·б\Maksim Mrvica - Greates Maksim (2009)\10 - Intermezzo (from Cavelleria Rusticana).wav
Pre-gap length 0:00:02.00
Peak level 99.2 % Track quality 100.0 % Test CRC 228F79A0 Copy CRC 228F79A0 Copy OK
Track 11
Filename D:\Documents and Settings\Trauma\My Documents\My Music\Бчёі АЪ·б\Maksim Mrvica - Greates Maksim (2009)\11 - Sarabande.wav
Pre-gap length 0:00:02.00
Peak level 99.2 % Track quality 100.0 % Test CRC E1999D3E Copy CRC E1999D3E Copy OK
Track 12
Filename D:\Documents and Settings\Trauma\My Documents\My Music\Бчёі АЪ·б\Maksim Mrvica - Greates Maksim (2009)\12 - Totentanz.wav
Pre-gap length 0:00:02.00
Peak level 100.0 % Track quality 100.0 % Test CRC F97B2086 Copy CRC F97B2086 Copy OK
Track 13
Filename D:\Documents and Settings\Trauma\My Documents\My Music\Бчёі АЪ·б\Maksim Mrvica - Greates Maksim (2009)\13 - Merry Christmas Mr. Lawrence.wav
Pre-gap length 0:00:02.00
Peak level 99.1 % Track quality 100.0 % Test CRC F834926D Copy CRC F834926D Copy OK
Track 14
Filename D:\Documents and Settings\Trauma\My Documents\My Music\Бчёі АЪ·б\Maksim Mrvica - Greates Maksim (2009)\14 - Dido's Lament (from Dido and Aeneas).wav
Pre-gap length 0:00:02.00
Peak level 99.2 % Track quality 100.0 % Test CRC DD727556 Copy CRC DD727556 Copy OK
Track 15
Filename D:\Documents and Settings\Trauma\My Documents\My Music\Бчёі АЪ·б\Maksim Mrvica - Greates Maksim (2009)\15 - Nostradamus.wav
Pre-gap length 0:00:02.00
Peak level 99.2 % Track quality 100.0 % Test CRC 0049B50E Copy CRC 0049B50E Copy OK
Track 16
Filename D:\Documents and Settings\Trauma\My Documents\My Music\Бчёі АЪ·б\Maksim Mrvica - Greates Maksim (2009)\16 - Amazonic.wav
Pre-gap length 0:00:02.00
Peak level 97.8 % Track quality 99.9 % Test CRC A46FEE38 Copy CRC A46FEE38 Copy OK
Track 17
Filename D:\Documents and Settings\Trauma\My Documents\My Music\Бчёі АЪ·б\Maksim Mrvica - Greates Maksim (2009)\17 - Croatian Rhapsody.wav
Pre-gap length 0:00:02.00
Peak level 99.2 % Track quality 100.0 % Test CRC 00DD2FC9 Copy CRC 00DD2FC9 Copy OK
Track 18
Filename D:\Documents and Settings\Trauma\My Documents\My Music\Бчёі АЪ·б\Maksim Mrvica - Greates Maksim (2009)\18 - The Flight of Bumble-Bee.wav
Pre-gap length 0:00:02.00
Peak level 99.1 % Track quality 100.0 % Test CRC 40370468 Copy CRC 40370468 Copy OK
No errors occurred
End of status report

CUE

REM GENRE ClassicalREM DATE 2009REM DISCID FA10B412REM COMMENT "ExactAudioCopy v0.99pb4"PERFORMER "Maksim Mrvica"TITLE "Greatest Maksim"FILE "01 - Wonderland.wav" WAVE TRACK 01 AUDIO TITLE "Wonderland" PERFORMER "Maksim Mrvica" INDEX 01 00:00:00 TRACK 02 AUDIO TITLE "Kolibre" PERFORMER "Maksim Mrvica" INDEX 00 03:40:20FILE "02 - Kolibre.wav" WAVE INDEX 01 00:00:00 TRACK 03 AUDIO TITLE "Cubana" PERFORMER "Maksim Mrvica" INDEX 00 03:51:59FILE "03 - Cubana.wav" WAVE INDEX 01 00:00:00 TRACK 04 AUDIO TITLE "The Gypsy Maid (from Il Trovatore)" PERFORMER "Maksim Mrvica" INDEX 00 03:09:60FILE "04 - The Gypsy Maid (from Il Trovatore).wav" WAVE INDEX 01 00:00:00 TRACK 05 AUDIO TITLE "Requiem" PERFORMER "Maksim Mrvica" INDEX 00 03:38:59FILE "05 - Requiem.wav" WAVE INDEX 01 00:00:00 TRACK 06 AUDIO TITLE "New World Concerto" PERFORMER "Maksim Mrvica" INDEX 00 02:58:50FILE "06 - New World Concerto.wav" WAVE INDEX 01 00:00:00 TRACK 07 AUDIO TITLE "Exodus" PERFORMER "Maksim Mrvica" INDEX 00 04:21:27FILE "07 - Exodus.wav" WAVE INDEX 01 00:00:00 TRACK 08 AUDIO TITLE "Bohemian Rhapsody" PERFORMER "Maksim Mrvica" INDEX 00 03:10:05FILE "08 - Bohemian Rhapsody.wav" WAVE INDEX 01 00:00:00 TRACK 09 AUDIO TITLE "Claudine" PERFORMER "Maksim Mrvica" INDEX 00 06:44:60FILE "09 - Claudine.wav" WAVE INDEX 01 00:00:00 TRACK 10 AUDIO TITLE "Intermezzo (from Cavelleria Rusticana)" PERFORMER "Maksim Mrvica" INDEX 00 04:30:02FILE "10 - Intermezzo (from Cavelleria Rusticana).wav" WAVE INDEX 01 00:00:00 TRACK 11 AUDIO TITLE "Sarabande" PERFORMER "Maksim Mrvica" INDEX 00 03:55:65FILE "11 - Sarabande.wav" WAVE INDEX 01 00:00:00 TRACK 12 AUDIO TITLE "Totentanz" PERFORMER "Maksim Mrvica" INDEX 00 03:37:73FILE "12 - Totentanz.wav" WAVE INDEX 01 00:00:00 TRACK 13 AUDIO TITLE "Merry Christmas Mr. Lawrence" PERFORMER "Maksim Mrvica" INDEX 00 04:44:30FILE "13 - Merry Christmas Mr. Lawrence.wav" WAVE INDEX 01 00:00:00 TRACK 14 AUDIO TITLE "Dido's Lament (from Dido and Aeneas)" PERFORMER "Maksim Mrvica" INDEX 00 03:53:40FILE "14 - Dido's Lament (from Dido and Aeneas).wav" WAVE INDEX 01 00:00:00 TRACK 15 AUDIO TITLE "Nostradamus" PERFORMER "Maksim Mrvica" INDEX 00 03:24:02FILE "15 - Nostradamus.wav" WAVE INDEX 01 00:00:00 TRACK 16 AUDIO TITLE "Amazonic" PERFORMER "Maksim Mrvica" INDEX 00 03:39:59FILE "16 - Amazonic.wav" WAVE INDEX 01 00:00:00 TRACK 17 AUDIO TITLE "Croatian Rhapsody" PERFORMER "Maksim Mrvica" INDEX 00 03:22:64FILE "17 - Croatian Rhapsody.wav" WAVE INDEX 01 00:00:00 TRACK 18 AUDIO TITLE "The Flight of Bumble-Bee" PERFORMER "Maksim Mrvica" INDEX 00 03:32:27FILE "18 - The Flight of Bumble-Bee.wav" WAVE INDEX 01 00:00:00
-



Показать сообщения:    

Текущее время: 05-Дек 07:31

Часовой пояс: UTC + 3


Вы не можете начинать темы
Вы не можете отвечать на сообщения
Вы не можете редактировать свои сообщения
Вы не можете удалять свои сообщения
Вы не можете голосовать в опросах
Вы не можете прикреплять файлы к сообщениям
Вы не можете скачивать файлы