(Классическая музыка в современной обработке) Вардан Маркос - Время Триумфа - 2007, FLAC (tracks+.cue), lossless


 

[Цитировать]

Вардан Маркос - Время Триумфа
Жанр: Классическая музыка в современной обработке
Год выпуска диска: 2007
Производитель диска: Россия
Аудио кодек: FLAC
Тип рипа: tracks+.cue
Битрейт аудио: lossless
Продолжительность: 00:45:02
Доп. информация: Вардан Маркос - лауреат международных конкурсов,скрипач, поистине виртуозный,который делает большое дело: знакомит с классическим музыкальным искусством современников,пока не знакомых с шедеврами прошлого. Вардан - один из немногих, с сольным инструментом в руках, умеет не только виртуозно играть на скрипке, но и не боится экспериментировать,импровизируя со всей экспрессией своей многогранной натуры,настойчиво развивая идеи скрещивания классики и современности.
РИП СДЕЛАН МНОЙ, С ПОМОЩЬЮ ПРОГРАММЫ EXACT AUDIO COPY, LOG И CUE ПРИЛАГАЮТСЯ

Треклист

01. Вардан Маркос - 01 МАЛЕНЬКАЯ НОЧНАЯ СЕРЕНАДА В. Моцарт
02. Вардан Маркос - 02 ЗИМА_А.Вивальди
03. Вардан Маркос - 03 СИМФОНИЯ no.5_Л.В.Бетховен
04. Вардан Маркос - 04 ПОЛЕТ ШМЕЛЯ_Н.Римский-Корсаков
05. Вардан Маркос - 05 ВАРИАЦИИ ЭГИНЫ ИЗ БАЛЕТА СПАРТАК_А. Хачатурян
06. Вардан Маркос - 06 ВОКАЛИЗ_С.Рахманинов
07. Вардан Маркос - 07 ИВАНЕСИЯ_С.Рахманинов
08. Вардан Маркос - 08 СИНДБАД_А.Аванесян
09. Вардан Маркос - 09 Я НА КАМУШКЕ СИЖУ_переложение русской народной сказки
10. Вардан Маркос - 10 АРЦАХ_армянская народная мелодия
11. Вардан Маркос - 11 ЦЫГАНОЧКА

log

Exact Audio Copy V1.0 beta 1 from 15. November 2010
EAC extraction logfile from 15. March 2011, 23:23
Вардан Маркос / Время Триумфа
Used drive : ASUS DRW-1608P2 Adapter: 0 ID: 0
Read mode : Secure
Utilize accurate stream : Yes
Defeat audio cache : Yes
Make use of C2 pointers : No
Read offset correction : 48
Overread into Lead-In and Lead-Out : No
Fill up missing offset samples with silence : Yes
Delete leading and trailing silent blocks : No
Null samples used in CRC calculations : Yes
Used interface : Native Win32 interface for Win NT & 2000
Gap handling : Appended to previous track
Used output format : User Defined Encoder
Selected bitrate : 1024 kBit/s
Quality : High
Add ID3 tag : No
Command line compressor : C:\Program Files\Exact Audio Copy\FLAC\FLAC.EXE
Additional command line options : -8 -V -T "ARTIST=%a" -T "TITLE=%t" -T "ALBUM=%g" -T "DATE=%y" -T "TRACKNUMBER=%n" -T "GENRE=%m" -T "COMMENT=EAC FLAC -8" %s
TOC of the extracted CD
Track | Start | Length | Start sector | End sector
---------------------------------------------------------
1 | 0:00.00 | 4:19.02 | 0 | 19426
2 | 4:19.02 | 4:16.12 | 19427 | 38638
3 | 8:35.14 | 4:10.30 | 38639 | 57418
4 | 12:45.44 | 3:57.47 | 57419 | 75240
5 | 16:43.16 | 4:03.63 | 75241 | 93528
6 | 20:47.04 | 3:35.45 | 93529 | 109698
7 | 24:22.49 | 3:58.66 | 109699 | 127614
8 | 28:21.40 | 4:55.05 | 127615 | 149744
9 | 33:16.45 | 3:40.35 | 149745 | 166279
10 | 36:57.05 | 5:35.31 | 166280 | 191435
11 | 42:32.36 | 3:22.10 | 191436 | 206595
Track 1
Filename D:\Torrent Раздачы\Время Триумфа\01. Вардан Маркос - 01 МАЛЕНЬКАЯ НОЧНАЯ СЕРЕНАДА В. Моцарт.wav
Pre-gap length 0:00:02.00
Peak level 99.5 %
Extraction speed 4.5 X
Track quality 100.0 %
Test CRC D29C9B24
Copy CRC D29C9B24
Copy OK
Track 2
Filename D:\Torrent Раздачы\Время Триумфа\02. Вардан Маркос - 02 ЗИМА_А.Вивальди.wav
Pre-gap length 0:00:02.00
Peak level 91.9 %
Extraction speed 5.0 X
Track quality 100.0 %
Test CRC 33B8E2BF
Copy CRC 33B8E2BF
Copy OK
Track 3
Filename D:\Torrent Раздачы\Время Триумфа\03. Вардан Маркос - 03 СИМФОНИЯ no.5_Л.В.Бетховен.wav
Pre-gap length 0:00:02.00
Peak level 99.9 %
Extraction speed 4.8 X
Track quality 99.9 %
Test CRC 1BD94177
Copy CRC 1BD94177
Copy OK
Track 4
Filename D:\Torrent Раздачы\Время Триумфа\04. Вардан Маркос - 04 ПОЛЕТ ШМЕЛЯ_Н.Римский-Корсаков.wav
Pre-gap length 0:00:02.00
Peak level 96.5 %
Extraction speed 5.8 X
Track quality 100.0 %
Test CRC DBE3646C
Copy CRC DBE3646C
Copy OK
Track 5
Filename D:\Torrent Раздачы\Время Триумфа\05. Вардан Маркос - 05 ВАРИАЦИИ ЭГИНЫ ИЗ БАЛЕТА СПАРТАК_А. Хачатурян.wav
Pre-gap length 0:00:02.00
Peak level 96.5 %
Extraction speed 6.2 X
Track quality 100.0 %
Test CRC AFB82BE2
Copy CRC AFB82BE2
Copy OK
Track 6
Filename D:\Torrent Раздачы\Время Триумфа\06. Вардан Маркос - 06 ВОКАЛИЗ_С.Рахманинов.wav
Pre-gap length 0:00:02.00
Peak level 99.3 %
Extraction speed 6.4 X
Track quality 100.0 %
Test CRC F6E59BED
Copy CRC F6E59BED
Copy OK
Track 7
Filename D:\Torrent Раздачы\Время Триумфа\07. Вардан Маркос - 07 ИВАНЕСИЯ_С.Рахманинов.wav
Pre-gap length 0:00:02.00
Peak level 96.5 %
Extraction speed 6.7 X
Track quality 100.0 %
Test CRC CD368649
Copy CRC CD368649
Copy OK
Track 8
Filename D:\Torrent Раздачы\Время Триумфа\08. Вардан Маркос - 08 СИНДБАД_А.Аванесян.wav
Pre-gap length 0:00:02.00
Peak level 88.8 %
Extraction speed 7.2 X
Track quality 100.0 %
Test CRC 994E2122
Copy CRC 994E2122
Copy OK
Track 9
Filename D:\Torrent Раздачы\Время Триумфа\09. Вардан Маркос - 09 Я НА КАМУШКЕ СИЖУ_переложение русской народной сказки.wav
Pre-gap length 0:00:02.00
Peak level 99.1 %
Extraction speed 6.3 X
Track quality 99.9 %
Test CRC 2CFB4BAB
Copy CRC 2CFB4BAB
Copy OK
Track 10
Filename D:\Torrent Раздачы\Время Триумфа\10. Вардан Маркос - 10 АРЦАХ_армянская народная мелодия.wav
Pre-gap length 0:00:02.00
Peak level 96.5 %
Extraction speed 7.9 X
Track quality 100.0 %
Test CRC 45B942E4
Copy CRC 45B942E4
Copy OK
Track 11
Filename D:\Torrent Раздачы\Время Триумфа\11. Вардан Маркос - 11 ЦЫГАНОЧКА.wav
Pre-gap length 0:00:02.00
Peak level 100.0 %
Extraction speed 7.7 X
Track quality 100.0 %
Test CRC 2B923ABD
Copy CRC 2B923ABD
Copy OK
No errors occurred
End of status report

cue

REM GENRE Classical
REM DISCID 950AC20B
REM COMMENT "ExactAudioCopy v1.0b1"
PERFORMER "Вардан Маркос"
TITLE "Время Триумфа"
FILE "01. Вардан Маркос - 01 МАЛЕНЬКАЯ НОЧНАЯ СЕРЕНАДА В. Моцарт.wav" WAVE
TRACK 01 AUDIO
TITLE "01 МАЛЕНЬКАЯ НОЧНАЯ СЕРЕНАДА В. Моцарт"
PERFORMER "Вардан Маркос"
INDEX 01 00:00:00
TRACK 02 AUDIO
TITLE "02 ЗИМА_А.Вивальди"
PERFORMER "Вардан Маркос"
INDEX 00 04:17:02
FILE "02. Вардан Маркос - 02 ЗИМА_А.Вивальди.wav" WAVE
INDEX 01 00:00:00
TRACK 03 AUDIO
TITLE "03 СИМФОНИЯ no.5_Л.В.Бетховен"
PERFORMER "Вардан Маркос"
INDEX 00 04:14:12
FILE "03. Вардан Маркос - 03 СИМФОНИЯ no.5_Л.В.Бетховен.wav" WAVE
INDEX 01 00:00:00
TRACK 04 AUDIO
TITLE "04 ПОЛЕТ ШМЕЛЯ_Н.Римский-Корсаков"
PERFORMER "Вардан Маркос"
INDEX 00 04:08:30
FILE "04. Вардан Маркос - 04 ПОЛЕТ ШМЕЛЯ_Н.Римский-Корсаков.wav" WAVE
INDEX 01 00:00:00
TRACK 05 AUDIO
TITLE "05 ВАРИАЦИИ ЭГИНЫ ИЗ БАЛЕТА СПАРТАК_А. Хачатурян"
PERFORMER "Вардан Маркос"
INDEX 00 03:55:47
FILE "05. Вардан Маркос - 05 ВАРИАЦИИ ЭГИНЫ ИЗ БАЛЕТА СПАРТАК_А. Хачатурян.wav" WAVE
INDEX 01 00:00:00
TRACK 06 AUDIO
TITLE "06 ВОКАЛИЗ_С.Рахманинов"
PERFORMER "Вардан Маркос"
INDEX 00 04:01:63
FILE "06. Вардан Маркос - 06 ВОКАЛИЗ_С.Рахманинов.wav" WAVE
INDEX 01 00:00:00
TRACK 07 AUDIO
TITLE "07 ИВАНЕСИЯ_С.Рахманинов"
PERFORMER "Вардан Маркос"
INDEX 00 03:33:45
FILE "07. Вардан Маркос - 07 ИВАНЕСИЯ_С.Рахманинов.wav" WAVE
INDEX 01 00:00:00
TRACK 08 AUDIO
TITLE "08 СИНДБАД_А.Аванесян"
PERFORMER "Вардан Маркос"
INDEX 00 03:56:66
FILE "08. Вардан Маркос - 08 СИНДБАД_А.Аванесян.wav" WAVE
INDEX 01 00:00:00
TRACK 09 AUDIO
TITLE "09 Я НА КАМУШКЕ СИЖУ_переложение русской народной сказки"
PERFORMER "Вардан Маркос"
INDEX 00 04:53:05
FILE "09. Вардан Маркос - 09 Я НА КАМУШКЕ СИЖУ_переложение русской народной сказки.wav" WAVE
INDEX 01 00:00:00
TRACK 10 AUDIO
TITLE "10 АРЦАХ_армянская народная мелодия"
PERFORMER "Вардан Маркос"
INDEX 00 03:38:35
FILE "10. Вардан Маркос - 10 АРЦАХ_армянская народная мелодия.wav" WAVE
INDEX 01 00:00:00
TRACK 11 AUDIO
TITLE "11 ЦЫГАНОЧКА"
PERFORMER "Вардан Маркос"
INDEX 00 05:33:31
FILE "11. Вардан Маркос - 11 ЦЫГАНОЧКА.wav" WAVE
INDEX 01 00:00:00

-

Другие мои раздачи

Армянская фолк музыка | Журавль
http://rutracker.org/forum/viewtopic.php?t=3471883
Антология Армянской Фольклорной Музыки
http://rutracker.org/forum/viewtopic.php?t=3465648
Песни О городе Ереван
http://rutracker.org/forum/viewtopic.php?t=3476216
Вардан Маркос - Время Триумфа
http://rutracker.org/forum/viewtopic.php?t=3479076
Всадники - Военная документалистика
http://rutracker.org/forum/viewtopic.php?t=3434267
Anni Piper - Discography
http://rutracker.org/forum/viewtopic.php?t=3567019
Айк Язджян - Дискография
http://rutracker.org/forum/viewtopic.php?t=3568125
Hosharian Brothers Band
http://rutracker.org/forum/viewtopic.php?t=3568196
-



Показать сообщения:    

Текущее время: 24-Янв 00:01

Часовой пояс: UTC + 3


Вы не можете начинать темы
Вы не можете отвечать на сообщения
Вы не можете редактировать свои сообщения
Вы не можете удалять свои сообщения
Вы не можете голосовать в опросах
Вы не можете прикреплять файлы к сообщениям
Вы не можете скачивать файлы