(Crossover/Electronic) Род Макларен (Родд Маккларен, McClaren) - Версии: Частная коллекция (Лист, Шопен, Чайковский, Григ, Бетховен) - 2000, APE (image+.cue), lossless


 

[Цитировать]

Род Макларен (electropiano) - Версии
Жанр: Crossover/Electronic
Год выпуска диска: 2000
Производитель диска: Россия
Лейбл: Частная коллекция/Мистерия звука
Кат.№: СНК-008
Аудио кодек: APE
Тип рипа: image+.cue
Битрейт аудио: lossless
Продолжительность: 41:23
Треклист:
1. Ноктюрн op.3 `Грезы любви`(автор музыки: Ференц Лист)
2. Вальс op.64 (автор музыки: Фредерик Шопен)
3. Баркаролла (автор музыки: Петр Чайковский)
4. Вальс цветов из балета `Щелкунчик`(автор музыки: Петр Чайковский)
5. Песня Сольвейг из сюиты `Пер Гюнт`(автор музыки: Эдвард Григ)
6. Лунная соната (Allegretto, Presto-Agitato) (автор музыки: Людвиг Ван Бетховен)
7. Анданте из Xольберг-сюиты (автор музыки: Эдвард Григ)
8. К Элизе (автор музыки: Людвиг Ван Бетховен)
9. Траурный марш (автор музыки: Фредерик Шопен)

Отчёт ЕАС

Exact Audio Copy V0.99 prebeta 5 from 4. May 2009
Отчёт EAC об извлечении, выполненном 10. марта 2011, 13:09
Род Макларен / Версии
Дисковод: TOSHIBA DVD-ROM SD-R1202 Adapter: 1 ID: 0
Режим чтения : ДостоверностьИспользование точного потока : ДаОтключение кэша аудио : ДаИспользование указателей C2 : Нет
Коррекция смещения при чтении : -472Способность читать области Lead-in и Lead-out : НетЗаполнение пропущенных сэмплов тишиной : ДаУдаление блоков с тишиной в начале и конце : НетПри вычислениях CRC использовались нулевые сэмплы : ДаИнтерфейс : Встроенный Win32-интерфейс для Win NT/2000
Выходной формат : Внутренние WAV-операцииФормат сэмплов : 44.100 Гц; 16 бит; стерео
TOC извлечённого CD
Трек | Старт | Длительность | Начальный сектор | Конечный сектор --------------------------------------------------------------------- 1 | 0:00.00 | 4:19.74 | 0 | 19498 2 | 4:19.74 | 2:09.21 | 19499 | 29194 3 | 6:29.20 | 4:10.67 | 29195 | 48011 4 | 10:40.12 | 5:47.03 | 48012 | 74039 5 | 16:27.15 | 4:08.47 | 74040 | 92686 6 | 20:35.62 | 7:01.54 | 92687 | 124315 7 | 27:37.41 | 4:37.28 | 124316 | 145118 8 | 32:14.69 | 2:40.64 | 145119 | 157182 9 | 34:55.58 | 6:27.70 | 157183 | 186277
Характеристики диапазона извлечения и сообщения об ошибках
Выбранный диапазон
Имя файла C:\...\Род Макларен - Версии.wav
Пиковый уровень 66.5 % Качество диапазона 100.0 % CRC теста F65A3AAD CRC копии F65A3AAD Копирование... OK
Ошибок не произошло
AccurateRip: сводка
Трек 1 нет в базе данныхТрек 2 нет в базе данныхТрек 3 нет в базе данныхТрек 4 нет в базе данныхТрек 5 нет в базе данныхТрек 6 нет в базе данныхТрек 7 нет в базе данныхТрек 8 нет в базе данныхТрек 9 нет в базе данных
Ни одного трека нет в базе AccurateRip
Конец отчёта



Показать сообщения:    

Текущее время: 02-Дек 21:16

Часовой пояс: UTC + 3


Вы не можете начинать темы
Вы не можете отвечать на сообщения
Вы не можете редактировать свои сообщения
Вы не можете удалять свои сообщения
Вы не можете голосовать в опросах
Вы не можете прикреплять файлы к сообщениям
Вы не можете скачивать файлы