The London Symphony Orchestra - Classic Rock Classics (5 CD Boxed Set), FLAC (tracks+.cue) lossless


 

[Цитировать]

- -The London Symphony Orchestra - Classic Rock Classics-Жанр: Symphonic Rock || Страна: Великобритания || Год выпуска:: 1990 || Формат: lossless || Тип рипа:: tracks+.cue-Цитата:The London Symphony Orchestra (ЛСО) был основан в 1904 году в качестве независимой самоуправляющейся организации.
Это был первый оркестр такого рода в Великобритании.
Свой первый концерт он сыграл 9 июня того же года, с дирижером Гансом Рихтером.
В 1906 году ЛСО стал первым британским оркестром, выступившим за рубежом (в Париже).
В 1912 году ЛСО выступил в США, — первоначально поездка в американское гастрольное турне планировалась на «Титанике», но, по счастливой случайности, в последний момент выступление было перенесено.
В 1966 году был образован ассоциированный с ЛСО Лондонский симфонический Хор (London Symphony Chorus), насчитывавший более двухсот непрофессиональных певцов. ЛСХ поддерживает плотное сотрудничество с ЛСО, несмотря на то, что сам он уже стал достаточно самостоятельным и имеет возможность сотрудничать с другими ведущими оркестрами.
ЛСО широко известен своими многочисленными записями саундтреков для кино. Среди них к фильмам Звездные войны , Кто подставил кролика Роджера, Королева, Индиана Джонс, Храброе сердце, Гарри Поттер и др. Он также принимал участие во многих записях поп-исполнителей, в том числе Sgt. Pepper's Lonely Hearts Club Band группы The Beatles, Manhole певицы Grace Slick, а также в песнях из альбомов Майкла Джексона Thriller и Bad и др. (c) Wikipedia
-АЛЬБОМЫ:-

CD1 London Symphony Orchestra Classic Rock (52:09)

01. Bohemian Rhapsody (6:27)
02. Life on Mars (4:22)
03. A Whiter Shade Of Pale (3:53)
04. Whole Lotta Love (4:32)
05. Paint It Black (5:29)
06. Nights In White Satin (4:52)
07. Lucy In The Sky With Diamonds (6:10)
08. Without You (3:56)
09. I'm Not In Love (7:32)
10. Sailing (4:56)

Audiochecker log

Started at: понедельник, 14. 02. 2011. - 19:52.47
10 files found
01 -===- D:\Архив\The London Symphony Orchestra Plays Classic Rock (5CD)\CD1 London Symphony Orchestra Classic Rock\01. Bohemian Rhapsody.flac
Extracted successfully
Conclusion: this track is CDDA with probability 100%
Tempfile successfully deleted.
02 -===- D:\Архив\The London Symphony Orchestra Plays Classic Rock (5CD)\CD1 London Symphony Orchestra Classic Rock\02. Life on Mars.flac
Extracted successfully
Conclusion: this track is CDDA with probability 100%
Tempfile successfully deleted.
03 -===- D:\Архив\The London Symphony Orchestra Plays Classic Rock (5CD)\CD1 London Symphony Orchestra Classic Rock\03. A Whiter Shade of Pale.flac
Extracted successfully
Conclusion: this track is CDDA with probability 100%
Tempfile successfully deleted.
04 -===- D:\Архив\The London Symphony Orchestra Plays Classic Rock (5CD)\CD1 London Symphony Orchestra Classic Rock\04. Whole Lotta Love.flac
Extracted successfully
Conclusion: this track is CDDA with probability 100%
Tempfile successfully deleted.
05 -===- D:\Архив\The London Symphony Orchestra Plays Classic Rock (5CD)\CD1 London Symphony Orchestra Classic Rock\05. Paint It Black.flac
Extracted successfully
Conclusion: this track is CDDA with probability 100%
Tempfile successfully deleted.
06 -===- D:\Архив\The London Symphony Orchestra Plays Classic Rock (5CD)\CD1 London Symphony Orchestra Classic Rock\06. Nights in White Satin.flac
Extracted successfully
Conclusion: this track is CDDA with probability 100%
Tempfile successfully deleted.
07 -===- D:\Архив\The London Symphony Orchestra Plays Classic Rock (5CD)\CD1 London Symphony Orchestra Classic Rock\07. Lucy in the Sky With Diamonds.flac
Extracted successfully
Conclusion: this track is CDDA with probability 100%
Tempfile successfully deleted.
08 -===- D:\Архив\The London Symphony Orchestra Plays Classic Rock (5CD)\CD1 London Symphony Orchestra Classic Rock\08. Without You.flac
Extracted successfully
Conclusion: this track is CDDA with probability 100%
Tempfile successfully deleted.
09 -===- D:\Архив\The London Symphony Orchestra Plays Classic Rock (5CD)\CD1 London Symphony Orchestra Classic Rock\09. I'm Not in Love.flac
Extracted successfully
Conclusion: this track is CDDA with probability 100%
Tempfile successfully deleted.
10 -===- D:\Архив\The London Symphony Orchestra Plays Classic Rock (5CD)\CD1 London Symphony Orchestra Classic Rock\10. Sailing.flac
Extracted successfully
Conclusion: this track is CDDA with probability 100%
Tempfile successfully deleted.
Finished at: понедельник, 14. 02. 2011. - 20:03.44 (operation time: 0:10.57)

Содержание cue

REM FILE-DECODED-SIZE 06:25:63
FILE "01. Bohemian Rhapsody.flac" FLAC
TRACK AUDIO
TITLE "Unknown Title"
PERFORMER "Unknown Performer"
INDEX 01 00:00:00
FILE "02. Life on Mars.flac" FLAC
TRACK FILE-DECODED-SIZE 04:21:10
TRACK AUDIO
TITLE "Unknown Title"
PERFORMER "Unknown Performer"
INDEX 01 00:00:00
FILE "03. A Whiter Shade of Pale.flac" FLAC
TRACK FILE-DECODED-SIZE 03:51:62
TRACK AUDIO
TITLE "Unknown Title"
PERFORMER "Unknown Performer"
INDEX 01 00:00:00
FILE "04. Whole Lotta Love.flac" FLAC
TRACK FILE-DECODED-SIZE 04:31:03
TRACK AUDIO
TITLE "Unknown Title"
PERFORMER "Unknown Performer"
INDEX 01 00:00:00
FILE "05. Paint It Black.flac" FLAC
TRACK FILE-DECODED-SIZE 05:27:72
TRACK AUDIO
TITLE "Unknown Title"
PERFORMER "Unknown Performer"
INDEX 01 00:00:00
FILE "06. Nights in White Satin.flac" FLAC
TRACK FILE-DECODED-SIZE 04:51:03
TRACK AUDIO
TITLE "Unknown Title"
PERFORMER "Unknown Performer"
INDEX 01 00:00:00
FILE "07. Lucy in the Sky With Diamonds.flac" FLAC
TRACK FILE-DECODED-SIZE 06:08:72
TRACK AUDIO
TITLE "Unknown Title"
PERFORMER "Unknown Performer"
INDEX 01 00:00:00
FILE "08. Without You.flac" FLAC
TRACK FILE-DECODED-SIZE 03:55:08
TRACK AUDIO
TITLE "Unknown Title"
PERFORMER "Unknown Performer"
INDEX 01 00:00:00
FILE "09. I'm Not in Love.flac" FLAC
TRACK FILE-DECODED-SIZE 07:30:67
TRACK AUDIO
TITLE "Unknown Title"
PERFORMER "Unknown Performer"
INDEX 01 00:00:00
FILE "10. Sailing.flac" FLAC
TRACK FILE-DECODED-SIZE 04:54:50
TRACK 10 AUDIO
TITLE "Unknown Title"
PERFORMER "Unknown Performer"
INDEX 01 00:00:00

CD2 London Symphony Orchestra The Second Movement (48:18)

01. The Eve of the War (4:23)
02. Pinball Wizard (5:57)
03. Hey Joe (4:39)
04. A Day in the Life (4:23)
05. Question (5:13)
06. Space Oddity (5:38)
07. God Only Knows (5:39)
08. River Deep Mountain High (3:16)
09. American Trilogy (4:31)
10. Don't Cry for Me Argentina (4:39)

Audiochecker log

Started at: понедельник, 14. 02. 2011. - 20:08.12
10 files found
01 -===- D:\Архив\The London Symphony Orchestra Plays Classic Rock (5CD)\CD2 London Symphony Orchestra The Second Ovement\01. The Eve of the War.flac
Extracted successfully
Conclusion: this track is CDDA with probability 99%
Tempfile successfully deleted.
02 -===- D:\Архив\The London Symphony Orchestra Plays Classic Rock (5CD)\CD2 London Symphony Orchestra The Second Ovement\02. Pinball Wizard.flac
Extracted successfully
Conclusion: this track is CDDA with probability 100%
Tempfile successfully deleted.
03 -===- D:\Архив\The London Symphony Orchestra Plays Classic Rock (5CD)\CD2 London Symphony Orchestra The Second Ovement\03. Hey Joe.flac
Extracted successfully
Conclusion: this track is CDDA with probability 100%
Tempfile successfully deleted.
04 -===- D:\Архив\The London Symphony Orchestra Plays Classic Rock (5CD)\CD2 London Symphony Orchestra The Second Ovement\04. A Day in the Life.flac
Extracted successfully
Conclusion: this track is CDDA with probability 100%
Tempfile successfully deleted.
05 -===- D:\Архив\The London Symphony Orchestra Plays Classic Rock (5CD)\CD2 London Symphony Orchestra The Second Ovement\05. Question.flac
Extracted successfully
Conclusion: this track is CDDA with probability 100%
Tempfile successfully deleted.
06 -===- D:\Архив\The London Symphony Orchestra Plays Classic Rock (5CD)\CD2 London Symphony Orchestra The Second Ovement\06. Space Oddity.flac
Extracted successfully
Conclusion: this track is CDDA with probability 100%
Tempfile successfully deleted.
07 -===- D:\Архив\The London Symphony Orchestra Plays Classic Rock (5CD)\CD2 London Symphony Orchestra The Second Ovement\07. God Only Knows.flac
Extracted successfully
Conclusion: this track is CDDA with probability 100%
Tempfile successfully deleted.
08 -===- D:\Архив\The London Symphony Orchestra Plays Classic Rock (5CD)\CD2 London Symphony Orchestra The Second Ovement\08. River Deep Mountain High.flac
Extracted successfully
Conclusion: this track is CDDA with probability 100%
Tempfile successfully deleted.
09 -===- D:\Архив\The London Symphony Orchestra Plays Classic Rock (5CD)\CD2 London Symphony Orchestra The Second Ovement\09. American Trilogy.flac
Extracted successfully
Conclusion: this track is CDDA with probability 100%
Tempfile successfully deleted.
10 -===- D:\Архив\The London Symphony Orchestra Plays Classic Rock (5CD)\CD2 London Symphony Orchestra The Second Ovement\10. Don't Cry for Me Argentina.flac
Extracted successfully
Conclusion: this track is CDDA with probability 100%
Tempfile successfully deleted.
Finished at: понедельник, 14. 02. 2011. - 20:17.24 (operation time: 0:09.11)

Содержание cue

FILE "01. The Eve of the War.flac" FLAC
REM FILE-DECODED-SIZE 04:21:63
TRACK 01 AUDIO
INDEX 01 00:00:00
FILE "02. Pinball Wizard.flac" FLAC
REM FILE-DECODED-SIZE 05:55:72
TRACK 02 AUDIO
INDEX 01 00:00:00
FILE "03. Hey Joe.flac" FLAC
REM FILE-DECODED-SIZE 04:38:03
TRACK 03 AUDIO
INDEX 01 00:00:00
FILE "04. A Day in the Life.flac" FLAC
REM FILE-DECODED-SIZE 04:22:00
TRACK 04 AUDIO
INDEX 01 00:00:00
FILE "05. Question.flac" FLAC
REM FILE-DECODED-SIZE 05:12:00
TRACK 05 AUDIO
INDEX 01 00:00:00
FILE "06. Space Oddity.flac" FLAC
REM FILE-DECODED-SIZE 05:36:72
TRACK 06 AUDIO
INDEX 01 00:00:00
FILE "07. God Only Knows.flac" FLAC
REM FILE-DECODED-SIZE 05:38:03
TRACK 07 AUDIO
INDEX 01 00:00:00
FILE "08. River Deep Mountain High.flac" FLAC
REM FILE-DECODED-SIZE 03:14:72
TRACK 08 AUDIO
INDEX 01 00:00:00
FILE "09. American Trilogy.flac" FLAC
REM FILE-DECODED-SIZE 04:30:03
TRACK 09 AUDIO
INDEX 01 00:00:00
FILE "10. Don't Cry for Me Argentina.flac" FLAC
REM FILE-DECODED-SIZE 04:37:45
TRACK 10 AUDIO
INDEX 01 00:00:00

CD3 London Symphony Orchestra Rhapsody in Black (51:45)

01. Fanfare Intro - Rhapsody In Black (0:48)
02. Reach Out I'll Be There (3:55)
03. You Keep Me Hanging On (5:34)
04. The First Time Ever I Saw Your Face (3:55)
05. Superstition (4:48)
06. Standing In The Shadows Of Love (6:42)
07. Don't Leave Me This Way (4:16)
08. Tears Of A Clown (2:53)
09. Rasputin (6:20)
10. I Heard It Through The Grapevine (5:42)
11. Ain't No Mountain High Enough (6:52)

Audiochecker log

Started at: понедельник, 14. 02. 2011. - 21:09.33
11 files found
01 -===- D:\Архив\The London Symphony Orchestra Plays Classic Rock (5CD)\CD3 London Symphony Orchestra Rhapsody In Black\01. Fanfare Intro Rhapsody in Black.flac
Extracted successfully
Conclusion: this track is CDDA with probability 100%
Tempfile successfully deleted.
02 -===- D:\Архив\The London Symphony Orchestra Plays Classic Rock (5CD)\CD3 London Symphony Orchestra Rhapsody In Black\02. Reach Out I'll Be There.flac
Extracted successfully
Conclusion: this track is CDDA with probability 100%
Tempfile successfully deleted.
03 -===- D:\Архив\The London Symphony Orchestra Plays Classic Rock (5CD)\CD3 London Symphony Orchestra Rhapsody In Black\03. You Keep Me Hanging On.flac
Extracted successfully
Conclusion: this track is CDDA with probability 100%
Tempfile successfully deleted.
04 -===- D:\Архив\The London Symphony Orchestra Plays Classic Rock (5CD)\CD3 London Symphony Orchestra Rhapsody In Black\04. The First Time I Ever Saw Your Love.flac
Extracted successfully
Conclusion: this track is CDDA with probability 100%
Tempfile successfully deleted.
05 -===- D:\Архив\The London Symphony Orchestra Plays Classic Rock (5CD)\CD3 London Symphony Orchestra Rhapsody In Black\05. Superstition.flac
Extracted successfully
Conclusion: this track is CDDA with probability 100%
Tempfile successfully deleted.
06 -===- D:\Архив\The London Symphony Orchestra Plays Classic Rock (5CD)\CD3 London Symphony Orchestra Rhapsody In Black\06. Standing in the Shadows of Love.flac
Extracted successfully
Conclusion: this track is CDDA with probability 100%
Tempfile successfully deleted.
07 -===- D:\Архив\The London Symphony Orchestra Plays Classic Rock (5CD)\CD3 London Symphony Orchestra Rhapsody In Black\07. Don't Leave Me This Way.flac
Extracted successfully
Conclusion: this track is CDDA with probability 100%
Tempfile successfully deleted.
08 -===- D:\Архив\The London Symphony Orchestra Plays Classic Rock (5CD)\CD3 London Symphony Orchestra Rhapsody In Black\08. Tears of a Clown.flac
Extracted successfully
Conclusion: this track is CDDA with probability 100%
Tempfile successfully deleted.
09 -===- D:\Архив\The London Symphony Orchestra Plays Classic Rock (5CD)\CD3 London Symphony Orchestra Rhapsody In Black\09. Rasputin.flac
Extracted successfully
Conclusion: this track is CDDA with probability 100%
Tempfile successfully deleted.
10 -===- D:\Архив\The London Symphony Orchestra Plays Classic Rock (5CD)\CD3 London Symphony Orchestra Rhapsody In Black\10. I Heard It Through the Grapevine.flac
Extracted successfully
Conclusion: this track is CDDA with probability 100%
Tempfile successfully deleted.
11 -===- D:\Архив\The London Symphony Orchestra Plays Classic Rock (5CD)\CD3 London Symphony Orchestra Rhapsody In Black\11. Ain't No Mountain High Enough.flac
Extracted successfully
Conclusion: this track is CDDA with probability 100%
Tempfile successfully deleted.
Finished at: понедельник, 14. 02. 2011. - 21:23.46 (operation time: 0:14.13)

Содержание cue

FILE "01. Fanfare Intro Rhapsody in Black.flac" FLAC
REM FILE-DECODED-SIZE 00:46:52
TRACK 01 AUDIO
INDEX 01 00:00:00
FILE "02. Reach Out I'll Be There.flac" FLAC
REM FILE-DECODED-SIZE 03:54:05
TRACK 02 AUDIO
INDEX 01 00:00:00
FILE "03. You Keep Me Hanging On.flac" FLAC
REM FILE-DECODED-SIZE 05:32:73
TRACK 03 AUDIO
INDEX 01 00:00:00
FILE "04. The First Time I Ever Saw Your Love.flac" FLAC
REM FILE-DECODED-SIZE 03:54:05
TRACK 04 AUDIO
INDEX 01 00:00:00
FILE "05. Superstition.flac" FLAC
REM FILE-DECODED-SIZE 04:47:00
TRACK 05 AUDIO
INDEX 01 00:00:00
FILE "06. Standing in the Shadows of Love.flac" FLAC
REM FILE-DECODED-SIZE 06:40:72
TRACK 06 AUDIO
INDEX 01 00:00:00
FILE "07. Don't Leave Me This Way.flac" FLAC
REM FILE-DECODED-SIZE 04:15:00
TRACK 07 AUDIO
INDEX 01 00:00:00
FILE "08. Tears of a Clown.flac" FLAC
REM FILE-DECODED-SIZE 02:51:73
TRACK 08 AUDIO
INDEX 01 00:00:00
FILE "09. Rasputin.flac" FLAC
REM FILE-DECODED-SIZE 06:19:05
TRACK 09 AUDIO
INDEX 01 00:00:00
FILE "10. I Heard It Through the Grapevine.flac" FLAC
REM FILE-DECODED-SIZE 05:41:00
TRACK 10 AUDIO
INDEX 01 00:00:00
FILE "11. Ain't No Mountain High Enough.flac" FLAC
REM FILE-DECODED-SIZE 06:51:25
TRACK 11 AUDIO
INDEX 01 00:00:00

CD4 London Symphony Orchestra Rock Classics (58:55)

01. Get Back (6:01)
02. Layla (6:50)
03. Stairway To Heaven (5:31)
04. Baker Street (5:17)
05. Another Brick In The Wall (5:58)
06. Jet (4:27)
07. Ruby Tuesday (4:37)
08. I Don't Like Mondays (9:26)
09. Bright Eyes (5:04)
10. Hey Jude (5:44)

Audiochecker log

Started at: понедельник, 14. 02. 2011. - 21:25.00
10 files found
01 -===- D:\Архив\The London Symphony Orchestra Plays Classic Rock (5CD)\CD4 London Symphony Orchestra Rock Classics\01. Get Back.flac
Extracted successfully
Conclusion: this track is CDDA with probability 100%
Tempfile successfully deleted.
02 -===- D:\Архив\The London Symphony Orchestra Plays Classic Rock (5CD)\CD4 London Symphony Orchestra Rock Classics\02. Layla.flac
Extracted successfully
Conclusion: this track is CDDA with probability 100%
Tempfile successfully deleted.
03 -===- D:\Архив\The London Symphony Orchestra Plays Classic Rock (5CD)\CD4 London Symphony Orchestra Rock Classics\03. Stairway To Heaven.flac
Extracted successfully
Conclusion: this track is CDDA with probability 100%
Tempfile successfully deleted.
04 -===- D:\Архив\The London Symphony Orchestra Plays Classic Rock (5CD)\CD4 London Symphony Orchestra Rock Classics\04. Backer Street.flac
Extracted successfully
Conclusion: could not qualify the source of this track
Tempfile successfully deleted.
05 -===- D:\Архив\The London Symphony Orchestra Plays Classic Rock (5CD)\CD4 London Symphony Orchestra Rock Classics\05. Another Brick In The Wall.flac
Extracted successfully
Conclusion: this track is MPEG with probability 85%
Tempfile successfully deleted.
06 -===- D:\Архив\The London Symphony Orchestra Plays Classic Rock (5CD)\CD4 London Symphony Orchestra Rock Classics\06. Jet.flac
Extracted successfully
Conclusion: this track is MPEG with probability 95%
Tempfile successfully deleted.
07 -===- D:\Архив\The London Symphony Orchestra Plays Classic Rock (5CD)\CD4 London Symphony Orchestra Rock Classics\07. Ruby Tuesday.flac
Extracted successfully
Conclusion: this track is CDDA with probability 100%
Tempfile successfully deleted.
08 -===- D:\Архив\The London Symphony Orchestra Plays Classic Rock (5CD)\CD4 London Symphony Orchestra Rock Classics\08. I Don't Like Mondays.flac
Extracted successfully
Conclusion: this track is CDDA with probability 100%
Tempfile successfully deleted.
09 -===- D:\Архив\The London Symphony Orchestra Plays Classic Rock (5CD)\CD4 London Symphony Orchestra Rock Classics\09. Bright Eyes.flac
Extracted successfully
Conclusion: this track is CDDA with probability 94%
Tempfile successfully deleted.
10 -===- D:\Архив\The London Symphony Orchestra Plays Classic Rock (5CD)\CD4 London Symphony Orchestra Rock Classics\10. Hey Jude.flac
Extracted successfully
Conclusion: this track is CDDA with probability 100%
Tempfile successfully deleted.
Finished at: понедельник, 14. 02. 2011. - 21:37.35 (operation time: 0:12.34)

Содержание cue

FILE "01. Get Back.flac" FLAC
REM FILE-DECODED-SIZE 05:59:67
TRACK 01 AUDIO
INDEX 01 00:00:00
FILE "02. Layla.flac" FLAC
REM FILE-DECODED-SIZE 06:49:05
TRACK 02 AUDIO
INDEX 01 00:00:00
FILE "03. Stairway To Heaven.flac" FLAC
REM FILE-DECODED-SIZE 05:30:08
TRACK 03 AUDIO
INDEX 01 00:00:00
FILE "04. Backer Street.flac" FLAC
REM FILE-DECODED-SIZE 05:16:05
TRACK 04 AUDIO
INDEX 01 00:00:00
FILE "05. Another Brick In The Wall.flac" FLAC
REM FILE-DECODED-SIZE 05:57:07
TRACK 05 AUDIO
INDEX 01 00:00:00
FILE "06. Jet.flac" FLAC
REM FILE-DECODED-SIZE 04:26:03
TRACK 06 AUDIO
INDEX 01 00:00:00
FILE "07. Ruby Tuesday.flac" FLAC
REM FILE-DECODED-SIZE 04:36:05
TRACK 07 AUDIO
INDEX 01 00:00:00
FILE "08. I Don't Like Mondays.flac" FLAC
REM FILE-DECODED-SIZE 09:25:10
TRACK 08 AUDIO
INDEX 01 00:00:00
FILE "09. Bright Eyes.flac" FLAC
REM FILE-DECODED-SIZE 05:03:05
TRACK 09 AUDIO
INDEX 01 00:00:00
FILE "10. Hey Jude.flac" FLAC
REM FILE-DECODED-SIZE 05:42:67
TRACK 10 AUDIO
INDEX 01 00:00:00

CD5 London Symphony Orchestra Rock Symphonies (52:18)

01. Born to Run (3:58)
02. For Your Love (3:31)
03. Chariots Of Fire (3:40)
04. House Of The Rising Sun (4:21)
05. You Really Got Me (3:05)
06. MacArthur Park (6:53)
07. Eye Of The Tiger (4:16)
08. Vienna (5:52)
09. She's Out Of My Life (5:05)
10. Pictures Of Lily (3:42)
11. Since You've Been Gone (4:54)
11. Gloria (3:01)

Audiochecker log

Started at: понедельник, 14. 02. 2011. - 21:41.29
12 files found
01 -===- D:\Архив\The London Symphony Orchestra Plays Classic Rock (5CD)\CD5 London Symphony Orchestra Rock Symphonies\01. Born To Run.flac
Extracted successfully
Conclusion: this track is CDDA with probability 99%
Tempfile successfully deleted.
02 -===- D:\Архив\The London Symphony Orchestra Plays Classic Rock (5CD)\CD5 London Symphony Orchestra Rock Symphonies\02. For Your Love.flac
Extracted successfully
Conclusion: this track is CDDA with probability 100%
Tempfile successfully deleted.
03 -===- D:\Архив\The London Symphony Orchestra Plays Classic Rock (5CD)\CD5 London Symphony Orchestra Rock Symphonies\03. Chariots Of Fire.flac
Extracted successfully
Conclusion: this track is CDDA with probability 100%
Tempfile successfully deleted.
04 -===- D:\Архив\The London Symphony Orchestra Plays Classic Rock (5CD)\CD5 London Symphony Orchestra Rock Symphonies\04. House Of The Rising Sun.flac
Extracted successfully
Conclusion: this track is CDDA with probability 100%
Tempfile successfully deleted.
05 -===- D:\Архив\The London Symphony Orchestra Plays Classic Rock (5CD)\CD5 London Symphony Orchestra Rock Symphonies\05. You Realy Got Me.flac
Extracted successfully
Conclusion: this track is CDDA with probability 100%
Tempfile successfully deleted.
06 -===- D:\Архив\The London Symphony Orchestra Plays Classic Rock (5CD)\CD5 London Symphony Orchestra Rock Symphonies\06. MacArthur Park.flac
Extracted successfully
Conclusion: this track is CDDA with probability 100%
Tempfile successfully deleted.
07 -===- D:\Архив\The London Symphony Orchestra Plays Classic Rock (5CD)\CD5 London Symphony Orchestra Rock Symphonies\07. Eye of The Tiger.flac
Extracted successfully
Conclusion: this track is CDDA with probability 100%
Tempfile successfully deleted.
08 -===- D:\Архив\The London Symphony Orchestra Plays Classic Rock (5CD)\CD5 London Symphony Orchestra Rock Symphonies\08. Vienna.flac
Extracted successfully
Conclusion: this track is CDDA with probability 100%
Tempfile successfully deleted.
09 -===- D:\Архив\The London Symphony Orchestra Plays Classic Rock (5CD)\CD5 London Symphony Orchestra Rock Symphonies\09. She's Out Of My Life.flac
Extracted successfully
Conclusion: this track is CDDA with probability 100%
Tempfile successfully deleted.
10 -===- D:\Архив\The London Symphony Orchestra Plays Classic Rock (5CD)\CD5 London Symphony Orchestra Rock Symphonies\10. Pictures Of Lily.flac
Extracted successfully
Conclusion: this track is CDDA with probability 100%
Tempfile successfully deleted.
11 -===- D:\Архив\The London Symphony Orchestra Plays Classic Rock (5CD)\CD5 London Symphony Orchestra Rock Symphonies\11. Since You've Been Gone.flac
Extracted successfully
Conclusion: this track is CDDA with probability 100%
Tempfile successfully deleted.
12 -===- D:\Архив\The London Symphony Orchestra Plays Classic Rock (5CD)\CD5 London Symphony Orchestra Rock Symphonies\12. Gloria.flac
Extracted successfully
Conclusion: this track is CDDA with probability 100%
Tempfile successfully deleted.
Finished at: понедельник, 14. 02. 2011. - 21:51.23 (operation time: 0:09.53)

Содержание cue

FILE "01. Born To Run.flac" FLAC
REM FILE-DECODED-SIZE 03:56:60
TRACK 01 AUDIO
INDEX 01 00:00:00
FILE "02. For Your Love.flac" FLAC
REM FILE-DECODED-SIZE 03:30:02
TRACK 02 AUDIO
INDEX 01 00:00:00
FILE "03. Chariots Of Fire.flac" FLAC
REM FILE-DECODED-SIZE 03:39:00
TRACK 03 AUDIO
INDEX 01 00:00:00
FILE "04. House Of The Rising Sun.flac" FLAC
REM FILE-DECODED-SIZE 04:20:00
TRACK 04 AUDIO
INDEX 01 00:00:00
FILE "05. You Realy Got Me.flac" FLAC
REM FILE-DECODED-SIZE 03:04:00
TRACK 05 AUDIO
INDEX 01 00:00:00
FILE "06. MacArthur Park.flac" FLAC
REM FILE-DECODED-SIZE 06:52:00
TRACK 06 AUDIO
INDEX 01 00:00:00
FILE "07. Eye of The Tiger.flac" FLAC
REM FILE-DECODED-SIZE 04:15:00
TRACK 07 AUDIO
INDEX 01 00:00:00
FILE "08. Vienna.flac" FLAC
REM FILE-DECODED-SIZE 05:51:00
TRACK 08 AUDIO
INDEX 01 00:00:00
FILE "09. She's Out Of My Life.flac" FLAC
REM FILE-DECODED-SIZE 05:04:00
TRACK 09 AUDIO
INDEX 01 00:00:00
FILE "10. Pictures Of Lily.flac" FLAC
REM FILE-DECODED-SIZE 03:40:73
TRACK 10 AUDIO
INDEX 01 00:00:00
FILE "11. Since You've Been Gone.flac" FLAC
REM FILE-DECODED-SIZE 04:53:02
TRACK 11 AUDIO
INDEX 01 00:00:00
FILE "12. Gloria.flac" FLAC
REM FILE-DECODED-SIZE 02:59:30
TRACK 12 AUDIO
INDEX 01 00:00:00
-Дополнительная информация:- Источник рипа: The Pirate Bay + мои .cue
Лично записал все 5 CD, проигрываются без проблем.
-



Показать сообщения:    

Текущее время: 05-Дек 23:40

Часовой пояс: UTC + 3


Вы не можете начинать темы
Вы не можете отвечать на сообщения
Вы не можете редактировать свои сообщения
Вы не можете удалять свои сообщения
Вы не можете голосовать в опросах
Вы не можете прикреплять файлы к сообщениям
Вы не можете скачивать файлы