(Classical Pop) Maksim Mrvica - Appassionata - 2010, FLAC (image+.cue), lossless


 

[Цитировать]

Maksim Mrvica - Appassionata
Жанр: Classical Pop
Год выпуска диска: 2010
Производитель диска: UK
Аудио кодек: FLAC
Тип рипа: image+.cue
Битрейт аудио: lossless
Продолжительность: 49:02.400
Источник: собственный рип
Треклист:
01 Carnival
02 Habanera
03 Tramuntana
04 The Swan
05 Serengeti Plains
06 Aquarium
07 Dumka
08 Appassionata
09 Varadero
10 Brahms Sonata Maestosa
11 Ana's Dream
Доп. информация: В раздачу включен полный комплект сканов.

EAC log

Exact Audio Copy V0.99 prebeta 5 from 4. May 2009
EAC extraction logfile from 28. January 2011, 7:51
Maksim / Appassionata
Used drive : Optiarc DVD RW AD-5200S Adapter: 5 ID: 0
Read mode : Secure
Utilize accurate stream : Yes
Defeat audio cache : Yes
Make use of C2 pointers : No
Read offset correction : 48
Overread into Lead-In and Lead-Out : No
Fill up missing offset samples with silence : Yes
Delete leading and trailing silent blocks : No
Null samples used in CRC calculations : Yes
Used interface : Native Win32 interface for Win NT & 2000
Used output format : Internal WAV Routines
Sample format : 44.100 Hz; 16 Bit; Stereo
TOC of the extracted CD
Track | Start | Length | Start sector | End sector
---------------------------------------------------------
1 | 0:00.00 | 4:16.47 | 0 | 19246
2 | 4:16.47 | 4:26.57 | 19247 | 39253
3 | 8:43.29 | 3:38.24 | 39254 | 55627
4 | 12:21.53 | 4:55.70 | 55628 | 77822
5 | 17:17.48 | 3:34.01 | 77823 | 93873
6 | 20:51.49 | 6:52.24 | 93874 | 124797
7 | 27:43.73 | 4:27.63 | 124798 | 144885
8 | 32:11.61 | 3:30.02 | 144886 | 160637
9 | 35:41.63 | 3:45.38 | 160638 | 177550
10 | 39:27.26 | 5:20.37 | 177551 | 201587
11 | 44:47.63 | 4:14.42 | 201588 | 220679
Range status and errors
Selected range
Filename R:\R_MUSIC\Maksim [2010] Appassionata (wav)\Maksim - Appassionata.wav
Peak level 98.1 %
Range quality 100.0 %
Test CRC 3DFA4296
Copy CRC 3DFA4296
Copy OK
No errors occurred
End of status report

Scans preview




Показать сообщения:    

Текущее время: 03-Дек 07:42

Часовой пояс: UTC + 3


Вы не можете начинать темы
Вы не можете отвечать на сообщения
Вы не можете редактировать свои сообщения
Вы не можете удалять свои сообщения
Вы не можете голосовать в опросах
Вы не можете прикреплять файлы к сообщениям
Вы не можете скачивать файлы