(Classic) Rondo Veneziano Golden (Golden Hits) - 2002, FLAC (image+.cue), lossless


 

[Цитировать]

Rondo Veneziano Golden (Golden Hits)

Жанр: Классика в современной обработке
Год выпуска диска: 2002
Производитель диска: EU
Аудио кодек: FLAC
Битрейт: lossless
Тип рипа: image+.cue
Продолжительность: 1:16:42
Источник: Собственный рип
Наличие сканов в содержимом раздачи: да
Треклист:
01 Ravel - Bolero
02 Tchaikowsky - La marcia
03 Strauss - La marcia di radetsky
04 Mozart - La marcia turca
05 Rossini - Il barbiere di siviglia
06 Rossini - Guglielmo tell
07 Bizet - Carmen
08 D.Cirelli-A.Gioco-F.Serra - La danza di arlecchino
09 Boccherini - Il minuetto di boccherini
10 Paganini - Il carnivale di venezia
11 Vivaldi - La primavera
12 Rossini - Le nozze di Figaro
13 Beethoven - 5 Simfonia
14 Mozart - 14 Simfonia no.40
15 G.Verdi - Libiamo libiamo
16 Matahari - Selenia - Estate veneziana
17 Schubert - Ave Maria
18 Beethoven - Per Elisa
19 Farina-Crivellente-Serra - Piazza san marco
20 Mozart - Sinfonia 525
21 Rossini - Tarantella
22 Matahari - Selenia - Serenade
23 D.Cirelli - A.Gioco - Rondo' veneziano
24 Steiner - Scandalo al sole

Отчёт EAC

Exact Audio Copy V1.0 beta 1 from 15. November 2010
Отчёт EAC об извлечении, выполненном 23. января 2011, 2:37
Various Artists / Golden Hits (Rondo Veneziano Golden)
Дисковод: TSSTcorpCDDVDW SH-S223F Adapter: 1 ID: 0
Режим чтения : ДостоверностьИспользование точного потока : ДаОтключение кэша аудио : ДаИспользование указателей C2 : Нет
Коррекция смещения при чтении : 6Способность читать области Lead-in и Lead-out : НетЗаполнение пропущенных сэмплов тишиной : ДаУдаление блоков с тишиной в начале и конце : НетПри вычислениях CRC использовались нулевые сэмплы : ДаИнтерфейс : Установленный внешний ASPI-интерфейс
Выходной формат : Пользовательский кодировщикВыбранный битрейт : 128 kBit/sКачество : ВысокийДобавление ID3-тега : НетУтилита сжатия : E:\Program Files (x86)\Exact Audio Copy\Flac\flac.exeДополнительные параметры : -8 -V %s
TOC извлечённого CD
Трек | Старт | Длительность | Начальный сектор | Конечный сектор --------------------------------------------------------------------- 1 | 0:00.00 | 3:29.50 | 0 | 15724 2 | 3:29.50 | 3:06.64 | 15725 | 29738 3 | 6:36.39 | 2:54.72 | 29739 | 42860 4 | 9:31.36 | 2:49.36 | 42861 | 55571 5 | 12:20.72 | 3:57.60 | 55572 | 73406 6 | 16:18.57 | 3:12.32 | 73407 | 87838 7 | 19:31.14 | 2:18.08 | 87839 | 98196 8 | 21:49.22 | 3:18.49 | 98197 | 113095 9 | 25:07.71 | 4:19.18 | 113096 | 132538 10 | 29:27.14 | 2:24.53 | 132539 | 143391 11 | 31:51.67 | 3:16.63 | 143392 | 158154 12 | 35:08.55 | 3:23.74 | 158155 | 173453 13 | 38:32.54 | 2:21.65 | 173454 | 184093 14 | 40:54.44 | 3:45.42 | 184094 | 201010 15 | 44:40.11 | 3:08.02 | 201011 | 215112 16 | 47:48.13 | 3:26.07 | 215113 | 230569 17 | 51:14.20 | 2:19.70 | 230570 | 241064 18 | 53:34.15 | 3:10.63 | 241065 | 255377 19 | 56:45.03 | 3:21.24 | 255378 | 270476 20 | 60:06.27 | 3:38.58 | 270477 | 286884 21 | 63:45.10 | 3:10.56 | 286885 | 301190 22 | 66:55.66 | 2:51.66 | 301191 | 314081 23 | 69:47.57 | 3:21.32 | 314082 | 329188 24 | 73:09.14 | 3:32.39 | 329189 | 345127
Характеристики диапазона извлечения и сообщения об ошибках
Выбранный диапазон
Имя файла D:\Музыка\Music\Rondo Veneziano Golden (Golden Hits)\Various Artists - Golden Hits (Rondo Veneziano Golden).wav
Пиковый уровень 100.0 % Скорость извлечения 0.1 X Качество диапазона 100.0 % CRC теста 4CA87DA1 CRC копии 4CA87DA1 Копирование... OK
Ошибок не произошло
AccurateRip: сводка
Трек 1 : извлечено точно (доверие 1) [E528466D]Трек 2 : извлечено точно (доверие 1) [9CCF8E15]Трек 3 : извлечено точно (доверие 1) [08EED950]Трек 4 : извлечено точно (доверие 1) [58D93E4C]Трек 5 : извлечено точно (доверие 1) [6D60AD4B]Трек 6 : извлечено точно (доверие 1) [7BC8700B]Трек 7 : извлечено точно (доверие 1) [0F906F9B]Трек 8 : извлечено точно (доверие 1) [805D111A]Трек 9 : извлечено точно (доверие 1) [C593EE97]Трек 10 : извлечено точно (доверие 1) [E2D487B0]Трек 11 : извлечено точно (доверие 1) [FB3DD30E]Трек 12 : извлечено точно (доверие 1) [0B2534AB]Трек 13 : извлечено точно (доверие 1) [217720B8]Трек 14 : извлечено точно (доверие 1) [FB5FD683]Трек 15 : извлечено точно (доверие 1) [F695AC4E]Трек 16 : извлечено точно (доверие 1) [C7F4FB57]Трек 17 : извлечено точно (доверие 1) [F977842D]Трек 18 : извлечено точно (доверие 1) [FFD0B95E]Трек 19 : извлечено точно (доверие 1) [6FACF5C9]Трек 20 : извлечено точно (доверие 1) [84356C09]Трек 21 : извлечено точно (доверие 1) [540C31B7]Трек 22 : извлечено точно (доверие 1) [E83BA33F]Трек 23 : извлечено точно (доверие 1) [72D98139]Трек 24 : извлечено точно (доверие 1) [BA4D2B0F]
Все треки извлечены точно
Конец отчёта

Содержание индексной карты (.CUE)

REM GENRE ClassicalREM DATE 2002REM DISCID 5211F918REM COMMENT "ExactAudioCopy v1.0b1"PERFORMER "Various Artists"TITLE "Golden Hits (Rondo Veneziano Golden)"FILE "Various Artists - Golden Hits (Rondo Veneziano Golden).flac" WAVE TRACK 01 AUDIO TITLE "BOLERO" PERFORMER "Ravel" INDEX 01 00:00:00 TRACK 02 AUDIO TITLE "LA MARCIA" PERFORMER "Tchaikowsky" INDEX 00 03:27:50 INDEX 01 03:29:50 TRACK 03 AUDIO TITLE "LA MARCIA DI RADETSKY" PERFORMER "Strauss" INDEX 00 06:34:39 INDEX 01 06:36:39 TRACK 04 AUDIO TITLE "LA MARCIA TURCA" PERFORMER "Mozart" INDEX 00 09:29:36 INDEX 01 09:31:36 TRACK 05 AUDIO TITLE "IL BARBIERE DI SIVIGLIA" PERFORMER "Rossini" INDEX 00 12:18:72 INDEX 01 12:20:72 TRACK 06 AUDIO TITLE "GUGLIELMO TELL" PERFORMER "Rossini" INDEX 00 16:16:57 INDEX 01 16:18:57 TRACK 07 AUDIO TITLE "CARMEN" PERFORMER "Bizet" INDEX 00 19:29:14 INDEX 01 19:31:14 TRACK 08 AUDIO TITLE "LA DANZA DI ARLECCHINO" PERFORMER "D.Cirelli-A.Gioco-F.Serra" INDEX 00 21:47:22 INDEX 01 21:49:22 TRACK 09 AUDIO TITLE "IL MINUETTO DI BOCCHERINI" PERFORMER "Boccherini" INDEX 00 25:05:71 INDEX 01 25:07:71 TRACK 10 AUDIO TITLE "IL CARNIVALE DI VENEZIA" PERFORMER "Paganini" INDEX 00 29:25:14 INDEX 01 29:27:14 TRACK 11 AUDIO TITLE "LA PRIMAVERA" PERFORMER "Vivaldi" INDEX 00 31:49:67 INDEX 01 31:51:67 TRACK 12 AUDIO TITLE "LE NOZZE DI FIGARO" PERFORMER "Rossini" INDEX 00 35:06:55 INDEX 01 35:08:55 TRACK 13 AUDIO TITLE "5 SIMFONIA" PERFORMER "Beethoven" INDEX 00 38:30:54 INDEX 01 38:32:54 TRACK 14 AUDIO TITLE "14 SINFONIA NO.40" PERFORMER "Mozart" INDEX 00 40:52:44 INDEX 01 40:54:44 TRACK 15 AUDIO TITLE "LIBIAMO LIBIAMO" PERFORMER "G.Verdi" INDEX 00 44:38:11 INDEX 01 44:40:11 TRACK 16 AUDIO TITLE "ESTATE VENEZIANA" PERFORMER "Matahari - Selenia" INDEX 00 47:46:13 INDEX 01 47:48:13 TRACK 17 AUDIO TITLE "AVE MARIA" PERFORMER "Schubert" INDEX 00 51:12:20 INDEX 01 51:14:20 TRACK 18 AUDIO TITLE "PER ELISA" PERFORMER "Beethoven" INDEX 00 53:32:15 INDEX 01 53:34:15 TRACK 19 AUDIO TITLE "PIAZZA SAN MARCO" PERFORMER "Farina-Crivellente-Serra" INDEX 00 56:43:03 INDEX 01 56:45:03 TRACK 20 AUDIO TITLE "SINFONIA 525" PERFORMER "Mozart" INDEX 00 60:04:27 INDEX 01 60:06:27 TRACK 21 AUDIO TITLE "TARANTELLA" PERFORMER "Rossini" INDEX 00 63:43:10 INDEX 01 63:45:10 TRACK 22 AUDIO TITLE "SERENADE" PERFORMER "Matahari - Selenia" INDEX 00 66:53:66 INDEX 01 66:55:66 TRACK 23 AUDIO TITLE "RONDO' VENEZIANO" PERFORMER "D.Cirelli - A.Gioco" INDEX 00 69:45:57 INDEX 01 69:47:57 TRACK 24 AUDIO TITLE "SCANDALO AL SOLE" PERFORMER "Steiner" INDEX 00 73:07:14 INDEX 01 73:09:14

Обложка, диск (preview)

Скриншот спектра частот




Показать сообщения:    

Текущее время: 08-Дек 19:03

Часовой пояс: UTC + 3


Вы не можете начинать темы
Вы не можете отвечать на сообщения
Вы не можете редактировать свои сообщения
Вы не можете удалять свои сообщения
Вы не можете голосовать в опросах
Вы не можете прикреплять файлы к сообщениям
Вы не можете скачивать файлы