(Downtempo, Lounge) VA - Masterworks Reworked - 2004, FLAC (tracks+.cue), lossless


 

[Цитировать]

Masterworks Reworked
Жанр: Classical Crossover, Downtempo, Lounge, Acid Jazz, House
Год выпуска диска: 2004
Лейбл: Groove Gravy
Номер по каталогу: GG-1104
Аудио кодек: FLAC
Тип рипа: tracks+.cue
Битрейт аудио: lossless
Продолжительность: 1:00:56
Треклист:
01. Zigo - Bach: Overture No. 3
02. The Tao of Groove - Puccini: Nessun Dorma (feat. "Tha Beloved" Two B.)
03. Jazzelicious - Ravel: Bolero
04. Dakesh York - Beethoven: Moonlight Sonata
05. Rithma - Tchaikovsky: Swan Lake Waltz
06. Le D - Schubert: Piano Mass No. 6: "Kyrie"
07. Tangerine D'Or - Rodrigo: Concierto de Aranjuez
08. Maya F.S. - Bach: Prelude No. 1
09. J-Radical - Rimsky Korsakov: Flight of the Bumblebee
10. Zigo - Tchaikovsky: The Seasons: Bacarolle
11. Kathie Talbot - Grieg: Peer Gynt: "Anita's Dance"
12. Morgan Page - Dvorak: Symphony No. 9: "From The New World"
Доп. информация:

EAC Log

Exact Audio Copy V0.99 prebeta 5 from 4. May 2009
EAC extraction logfile from 17. March 2010, 19:29
Various Artists / Masterworks Reworked
Used drive : _NEC DVD_RW ND-3550A Adapter: 1 ID: 0
Read mode : SecureUtilize accurate stream : YesDefeat audio cache : YesMake use of C2 pointers : No
Read offset correction : 48Overread into Lead-In and Lead-Out : NoFill up missing offset samples with silence : YesDelete leading and trailing silent blocks : NoNull samples used in CRC calculations : YesUsed interface : Native Win32 interface for Win NT & 2000Gap handling : Appended to previous track
Used output format : Internal WAV RoutinesSample format : 44.100 Hz; 16 Bit; Stereo
TOC of the extracted CD
Track | Start | Length | Start sector | End sector --------------------------------------------------------- 1 | 0:00.00 | 5:34.65 | 0 | 25114 2 | 5:34.65 | 4:50.35 | 25115 | 46899 3 | 10:25.25 | 5:44.30 | 46900 | 72729 4 | 16:09.55 | 4:25.02 | 72730 | 92606 5 | 20:34.57 | 5:21.58 | 92607 | 116739 6 | 25:56.40 | 5:16.62 | 116740 | 140501 7 | 31:13.27 | 6:27.60 | 140502 | 169586 8 | 37:41.12 | 4:03.33 | 169587 | 187844 9 | 41:44.45 | 2:55.00 | 187845 | 200969 10 | 44:39.45 | 3:51.50 | 200970 | 218344 11 | 48:31.20 | 6:08.22 | 218345 | 245966 12 | 54:39.42 | 6:17.13 | 245967 | 274254
Track 1
Filename C:\temp\01. Zigo - Bach - Overture No. 3.wav
Pre-gap length 0:00:02.00
Peak level 100.0 % Track quality 100.0 % Test CRC A44BBA28 Copy CRC A44BBA28 Track not present in AccurateRip database Copy OK
Track 2
Filename C:\temp\02. The Tao of Groove - Puccini - Torandot - Nessun Dorma.wav
Peak level 98.8 % Track quality 100.0 % Test CRC D7C65A4B Copy CRC D7C65A4B Track not present in AccurateRip database Copy OK
Track 3
Filename C:\temp\03. Jazzelicious - Ravel - Bolero.wav
Peak level 100.0 % Track quality 100.0 % Test CRC 11CD9924 Copy CRC 11CD9924 Track not present in AccurateRip database Copy OK
Track 4
Filename C:\temp\04. Dakesh York - Beethoven - Moonlight Sonata.wav
Peak level 98.8 % Track quality 100.0 % Test CRC B4FC4959 Copy CRC B4FC4959 Track not present in AccurateRip database Copy OK
Track 5
Filename C:\temp\05. Rithma - Tchaikovsky - Swan Lake Waltz.wav
Peak level 100.0 % Track quality 99.9 % Test CRC 59CB0B94 Copy CRC 59CB0B94 Track not present in AccurateRip database Copy OK
Track 6
Filename C:\temp\06. Le D - Schubert - Piano Mass No. 6 - Kyrie.wav
Peak level 98.8 % Track quality 100.0 % Test CRC 0491311C Copy CRC 0491311C Track not present in AccurateRip database Copy OK
Track 7
Filename C:\temp\07. Tangerine D'or - Rodrigo - Concierto de Aranjuez.wav
Peak level 100.0 % Track quality 100.0 % Test CRC 5ED8FCD7 Copy CRC 5ED8FCD7 Track not present in AccurateRip database Copy OK
Track 8
Filename C:\temp\08. Maya FS - Bach - Prelude No. 1.wav
Peak level 98.8 % Track quality 100.0 % Test CRC 67566C50 Copy CRC 67566C50 Track not present in AccurateRip database Copy OK
Track 9
Filename C:\temp\09. J-Radical - Rimsky Korsakov - Flight of the Bumblebee.wav
Peak level 87.6 % Track quality 99.9 % Test CRC F254FA9D Copy CRC F254FA9D Track not present in AccurateRip database Copy OK
Track 10
Filename C:\temp\10. Zigo - Tchaikovsky - The Seasons - Barcarolle.wav
Peak level 98.8 % Track quality 99.8 % Test CRC E84A4EAE Copy CRC E84A4EAE Track not present in AccurateRip database Copy OK
Track 11
Filename C:\temp\11. Kathie Talbot - Grieg - Peer Gynt - Anita's Dance.wav
Pre-gap length 0:00:01.10
Peak level 98.8 % Track quality 100.0 % Test CRC E7927794 Copy CRC E7927794 Track not present in AccurateRip database Copy OK
Track 12
Filename C:\temp\12. Morgan Page - Dvorak - Symphony No. 9 - From the New World.wav
Pre-gap length 0:00:01.20
Peak level 99.2 % Track quality 100.0 % Test CRC 2DF5FCDC Copy CRC 2DF5FCDC Track not present in AccurateRip database Copy OK
None of the tracks are present in the AccurateRip database
No errors occurred
End of status report

Audiochecker

AUDIOCHECKER v2.0 beta (build 457) - by Dester - opdester@freemail.hu
~~~~~~~~~~~~~~~~~~~~~~~~~~~~~~~~~~
-=== DO NOT EDIT THIS FILE! ===-
Path: ...\VA - 2004 - Masterworks Reworked [FLAC]
01 -=- 01. Zigo - Bach - Overture No. 3.flac -=- CDDA (100%)
02 -=- 02. The Tao of Groove - Puccini - Torandot - Nessun Dorma.flac -=- CDDA (100%)
03 -=- 03. Jazzelicious - Ravel - Bolero.flac -=- CDDA (100%)
04 -=- 04. Dakesh York - Beethoven - Moonlight Sonata.flac -=- CDDA (99%)
05 -=- 05. Rithma - Tchaikovsky - Swan Lake Waltz.flac -=- CDDA (100%)
06 -=- 06. Le D - Schubert - Piano Mass No. 6 - Kyrie.flac -=- CDDA (100%)
07 -=- 07. Tangerine D'or - Rodrigo - Concierto de Aranjuez.flac -=- CDDA (100%)
08 -=- 08. Maya FS - Bach - Prelude No. 1.flac -=- CDDA (100%)
09 -=- 09. J-Radical - Rimsky Korsakov - Flight of the Bumblebee.flac -=- CDDA (100%)
10 -=- 10. Zigo - Tchaikovsky - The Seasons - Barcarolle.flac -=- CDDA (100%)
11 -=- 11. Kathie Talbot - Grieg - Peer Gynt - Anita's Dance.flac -=- CDDA (100%)
12 -=- 12. Morgan Page - Dvorak - Symphony No. 9 - From the New World.flac -=- CDDA (100%)
Summary 99.92% CDDA
100928548

.cue

REM GENRE ElectronicREM DATE 2004REM DISCID AA0E480CREM COMMENT "ExactAudioCopy v0.99pb5"FILE "01. Zigo - Bach - Overture No. 3.wav" WAVE TRACK 01 AUDIO INDEX 01 00:00:00FILE "02. The Tao of Groove - Puccini - Torandot - Nessun Dorma.wav" WAVE TRACK 02 AUDIO INDEX 01 00:00:00FILE "03. Jazzelicious - Ravel - Bolero.wav" WAVE TRACK 03 AUDIO INDEX 01 00:00:00FILE "04. Dakesh York - Beethoven - Moonlight Sonata.wav" WAVE TRACK 04 AUDIO INDEX 01 00:00:00FILE "05. Rithma - Tchaikovsky - Swan Lake Waltz.wav" WAVE TRACK 05 AUDIO INDEX 01 00:00:00FILE "06. Le D - Schubert - Piano Mass No. 6 - Kyrie.wav" WAVE TRACK 06 AUDIO INDEX 01 00:00:00FILE "07. Tangerine D'or - Rodrigo - Concierto de Aranjuez.wav" WAVE TRACK 07 AUDIO INDEX 01 00:00:00FILE "08. Maya FS - Bach - Prelude No. 1.wav" WAVE TRACK 08 AUDIO INDEX 01 00:00:00FILE "09. J-Radical - Rimsky Korsakov - Flight of the Bumblebee.wav" WAVE TRACK 09 AUDIO INDEX 01 00:00:00FILE "10. Zigo - Tchaikovsky - The Seasons - Barcarolle.wav" WAVE TRACK 10 AUDIO INDEX 01 00:00:00 TRACK 11 AUDIO INDEX 00 03:50:42FILE "11. Kathie Talbot - Grieg - Peer Gynt - Anita's Dance.wav" WAVE INDEX 01 00:00:00 TRACK 12 AUDIO INDEX 00 06:07:07FILE "12. Morgan Page - Dvorak - Symphony No. 9 - From the New World.wav" WAVE INDEX 01 00:00:00
Источник:

Риппер: sirsquatch



Показать сообщения:    

Текущее время: 09-Дек 08:54

Часовой пояс: UTC + 3


Вы не можете начинать темы
Вы не можете отвечать на сообщения
Вы не можете редактировать свои сообщения
Вы не можете удалять свои сообщения
Вы не можете голосовать в опросах
Вы не можете прикреплять файлы к сообщениям
Вы не можете скачивать файлы