(Classical, Opera) Classical 2011 (A. Gheorghiu, P. Domingo, А. Нетребко, L. Pavarotti, R. Villazon, etc.) - 2010, FLAC (image+.cue) lossless


 

[Цитировать]

Classical 2011 (A.Gheorghiu, P.Domingo, A.Netrebko, L.Pavarotti, R.Villazon, etc.)
Жанр: Classical, Opera
Страна-производитель диска: EU
Год издания диска: 2010
Издатель (лейбл): EMI Records Ltd.
Номер по каталогу: 50999 6 40506 2 1
Дата записи: 1967-2010
Аудиокодек: FLAC
Тип рипа: image+.cue
Битрейт аудио: lossless
Продолжительность: 1:16:12 + 1:18:15
Источник: собственный рип
Наличие сканов в содержимом раздачи: да
Исполнители:
Angela Gheorghiu, Placido Domingo, Karl Jenkins, Sarah Brightman, Alison Balsom, Vivica Genaux, Maria Callas, Rolando Villazon. etc.
Внимание: 27.11.10 релиз переделан в соответствии с правилами. Пожалуйста, если кому-то нужно, перезалейте и перехэшируйте уже скачанные файлы.

Треклист

CD1
01 ANGELA GHEORGHIU
Жорж Бизе: L'amour est un enfant Boheme (Habanera, original version - Carmen)
Choeur 'Les Elements'
Orchestre National du Capitole de Toulouse Michel Plasson 2003
02 PLACIDO DOMINGO
Джакомо Пуччини: Recondita armonia (Tosca)
National Philharmonic Orchestra / Eugene Kohn 1990
03 KARL JENKINS
JENKINS: Gloria
Gloria in excelsis Deo
National Youth Choir of Great Britain directed by Mike Brewer
London Symphony Orchestra / Karl Jenkins 2010
04 JOYCE DiDONATO
Джоаккино Россини: Bel raggio lusinghier (Semiramide)
Orchestra e Coro dell'Accademia Nazionale di Santa Cecilia - Roma / Edoardo Muller 2009 EMI Records Ltd/Virgin Classics
05 NIGEL KENNEDY
Иоганн Себастьян Бах: Violin Concerto in A minor BWV1041
I. [Allegro]
Berliner Philharmoniker / Nigel Kennedy 2000
06 SARAH BRIGHTMAN
SOMERSET FOLK SONG
O Waly, Waly
coll. Cecil Sharp arr. Britten Geoffrey Parsons piano 1988
07 YUNDI
Frederic Chopin: Nocturne No.2 in E flat Op.9 No.2
2010 China Arts International Ltd under exclusive licence to EMI Records Ltd
08 LIBERA
RUTTER: Deep Peace (Gaelic Blessing)
Solos: Stefan Leadbeater & James Threadgill with Samuel Moriarty
Robert Prizeman & Ian Tilley piano and keyboards
Robert Prizeman director & conductor
2010 Robert Prizeman under exclusive licence ~ to EMI Records Ltd
09 ALISON BALSOM
Антонио Вивальди: Concerto in A minor RV356
III. Presto
transcr. Balsom
Scottish Ensemble / Alison Balsom 2010
10 GABRIELA MONTERO
LECUONA: Malaguena 2010
11 GAUTIER CAPUCON, VALERY GERGIEV
Петр Чайковский: Variations on a Rococo Theme
Variation VII & Coda
Mariinsky Theatre Orchestra, St Petersburg Valery Gergiev
2009 EMI Records Ltd/Virgin Classics
12 DAVID FRAY
Франц Шуберт: Moment musical No.3 in F minor
2009 EMI Records Ltd/Virgin Classics
13 VIVICA GENAUX
Антонио Вивальди: Ricordate che sei (Farnace)
Europa Galante / Fabio Biondi
2009 EMI Records Ltd/Virgin Classics
14 DIE 12 CELLISTEN DER BERLINER PHILHARMONIKER
Клод Дебюсси: Clair de lune
arr. Kaiser-Lindemann 2010
15 MARIA CALLAS
CATALANI: Ebben? Ne andro lontana (La Wally)
Philharmonia Orchestra / Tullio Serafin 2005
16 EMMANUEL PAHUD
Джузеппе Верди: Fantasy on 'La traviata' opening
arr. Krakamp & Briccialdi orch. & rev. Gamzou Rotterdam Philharmonic Orchestra Yannick Nezet-Seguin
2010 Rotterdam Philharmonic Orchestra under exclusive licence to EMI Records Ltd
17 QUATUOR EBENE
ROUBANIS: Misirlou (from the film Pulp Fiction)
2010 EMI Records Ltd/Virgin Classics
18 ROLANDO VILLAZON
Gaetano Donizetti: Quanto e bella (L'elisir d'amore)
Munchner Rundfunkorchester / Marcello Viotti
2004 EMI Records Ltd/Virgin Classics
19 XUEFEI YANG
RODRIGO: Concierto de Aranjuez
I. Allegro con spirito
Orquestra Simfonica de Barcelona i Nacional de Catalunya / Eiji Oue 2010
20 PAUL POTTS
Джакомо Пуччини: Nessun dorma (Turandot)
Choir · London Symphony Orchestra David Snell
2007 Simco Limited exclusively licensed to Sony Music Entertainment UK Limited
Licensed courtesy of Sony Music Entertainment UK Limited
CD2
01 ANNA NETREBKO
ROSSINI: Inflammatus et accensus (Stabat Mater)
Orchestra e Coro dell'Accademia Nazionale di Santa Cecilia - Roma / Antonio Pappano 2010
Anna Netrebko appears by kind permission of Deutsche Crammophon Gesellschaft mbH
02 NATALIE DESSAY
Рихард Штраус: Amor Op.68 No.5
Orchestra of the Royal Opera House
Antonio Pappano
2004 EMI Records Ltd/Virgin Classics
03 EVGENY KISSIN
Сергей Прокофьев: Piano Concerto No.2 in G minor
III. Intermezzo: Allegro moderato
Philharmonia Orchestra / Vladimir Ashkenazy 2009
04 SARAH CHANG
BRUCH: Violin Concerto No.1 in G minor
III. Finale: Allegro energico
Dresdner Philharmonie / Kurt Masur 2009
05 PLACIDO DOMINGO
BARROSO: Aquarela do Brasil
VVC Symphonic Orchestra
Produced, arranged and directed by Bebu Silvetti
1991 Teviri B.V. under exclusive licence to EMI Records Ltd
06 MARTHA ARGERICH, MAURICIO VALLINA
Ференц Лист: Reminiscences de Don Juan
IV. Presto
2010 Recorded live at the Lugano Festival 2009
07 KATE ROYAL
Георг Фридрих Гендель: Del ciglio dolente (La Resurrezione)
Le Concert d'Astree / Emmanuelle Haim
2009 EMI Records Ltd/Virgin Classics
08 ALEXANDRE THARAUD
CHOPIN: Trois Ecossaises Op.72 No.3
No.1 in D - No.2 in G - No.3 in D flat
2009 EMI Records Ltd/Virgin Classics
09 RUSSELL WATSON
Пьетро Масканьи: Intermezzo
arr. Steven Baker
Rome Sinfonietta / Renato Serio
2010 Charriet Music Ltd under exclusive licence
to Sony Music Entertainment UK Limited.
Licensed courtesy of Sony Music Entertainment UK Limited
Taken from the Russell Watson album La Voce
10 LEIF OVE ANDSNES
Сергей Рахманинов: Piano Concerto No.4 in G minor
II. Largo
London Symphony Orchestra / Antonio Pappano 2010
11 SIMON O'NEILL
Рихард Вагнер: Wintersturme wichen dem Wonnemond (Die Walkure)
New Zealand Symphony Orchestra / Pietari Inkinen
2010 New Zealand Symphony Orchestra under exclusive licence to EMI Records Ltd.
12 ANGELA GHEORGHIU, ROBERTO ALAGNA
PUCCINI: O soave fanciulla (La boheme)
Orchestra of the Royal Opera House Richard Armstrong 1996
13 INGRID FLITER
CHOPIN: Waltz in D flat Op.64 No.1 'Minute'
2009
14 JONAS KAUFMANN
PUCCINI: Dovunque al mondo (Madama Butterfly)
Fabio Capitanucci baritone
Orchestra dell'Accademia Nazionale di Santa Cecilia - Roma / Antonio Pappano 2009
Jonas Kaufmann appears by kind permission of Decca Music Group Limited
15 DIANA DAMRAU
VERDI: Saper vorreste (Un ballo in maschera)
Munchner Rundfunkorchester / Dan Ettinger
2009 EMI Records Ltd/Virgin Classics
16 PHILIPPE JAROUSSKY, NURIA RIAL
attrib. Клаудио Монтеверди: Pur ti miro (L'incoronazione di Poppea)
L'Arpeggiata / Christina Pluhar
2009 EMI Records Ltd/Virgin Classics
17 LUCIANO PAVAROTTI, MIRELLA FRENI
MASCAGNI: Suzel, bon di (L'amico Fritz)
Orchestra of the Royal Opera House
Gianandrea Gavazzeni 1969/1987
18 BELCEA QUARTET
SCHUBERT: String Quartet No.14 in D minor D810 'DerTod und das Madchen'
III. Scherzo: Allegro molto - Trio
2009
19 IAN BOSTRIDGE, THOMAS ADES
ADES: Who was here? (The Tempest)
Cyndia Sieden soprano
Orchestra of the Royal Opera House / Thomas Ades
2009 Live recording
20 SIR SIMON RATTLE
TCHAIKOVSKY: Pas de deux - Coda (The Nutcracker)
Berliner Philharmoniker 2010

Лог создания рипа

CD1 log EAC

Exact Audio Copy V0.99 prebeta 5 from 4. May 2009
EAC extraction logfile from 18. November 2010, 6:38
Various / Classical 2011
Used drive : HL-DT-STDVD-RAM GH22NP20 Adapter: 0 ID: 0
Read mode : Secure
Utilize accurate stream : Yes
Defeat audio cache : Yes
Make use of C2 pointers : No
Read offset correction : 102
Overread into Lead-In and Lead-Out : No
Fill up missing offset samples with silence : Yes
Delete leading and trailing silent blocks : No
Null samples used in CRC calculations : Yes
Used interface : Installed external ASPI interface
Used output format : Internal WAV Routines
Sample format : 44.100 Hz; 16 Bit; Stereo
TOC of the extracted CD
Track | Start | Length | Start sector | End sector
---------------------------------------------------------
1 | 0:00.00 | 3:38.73 | 0 | 16422
2 | 3:38.73 | 2:57.51 | 16423 | 29748
3 | 6:36.49 | 4:51.52 | 29749 | 51625
4 | 11:28.26 | 6:14.02 | 51626 | 79677
5 | 17:42.28 | 3:50.03 | 79678 | 96930
6 | 21:32.31 | 4:38.12 | 96931 | 117792
7 | 26:10.43 | 4:32.66 | 117793 | 138258
8 | 30:43.34 | 3:31.02 | 138259 | 154085
9 | 34:14.36 | 2:33.48 | 154086 | 165608
10 | 36:48.09 | 4:00.48 | 165609 | 183656
11 | 40:48.57 | 2:15.16 | 183657 | 193797
12 | 43:03.73 | 2:14.65 | 193798 | 203912
13 | 45:18.63 | 3:45.68 | 203913 | 220855
14 | 49:04.56 | 4:36.22 | 220856 | 241577
15 | 53:41.03 | 4:56.04 | 241578 | 263781
16 | 58:37.07 | 2:52.02 | 263782 | 276683
17 | 61:29.09 | 3:09.49 | 276684 | 290907
18 | 64:38.58 | 2:30.38 | 290908 | 302195
19 | 67:09.21 | 6:09.54 | 302196 | 329924
20 | 73:19.00 | 2:53.51 | 329925 | 342950
Range status and errors
Selected range
Filename K:\[R]\Various [2010] Classical 2011 CD1 (flac, rutracker)\Various - Classical 2011.wav
Peak level 98.9 %
Range quality 100.0 %
Test CRC C5DFBA56
Copy CRC C5DFBA56
Copy OK
No errors occurred
AccurateRip summary
Track 1 not present in database
Track 2 not present in database
Track 3 not present in database
Track 4 not present in database
Track 5 not present in database
Track 6 not present in database
Track 7 not present in database
Track 8 not present in database
Track 9 not present in database
Track 10 not present in database
Track 11 not present in database
Track 12 not present in database
Track 13 not present in database
Track 14 not present in database
Track 15 not present in database
Track 16 not present in database
Track 17 not present in database
Track 18 not present in database
Track 19 not present in database
Track 20 not present in database
None of the tracks are present in the AccurateRip database
End of status report

CD2 log EAC

Exact Audio Copy V0.99 prebeta 5 from 4. May 2009
EAC extraction logfile from 16. November 2010, 7:58
Various / Classical 2011
Used drive : HL-DT-STDVD-RAM GH22NP20 Adapter: 0 ID: 0
Read mode : Secure
Utilize accurate stream : Yes
Defeat audio cache : Yes
Make use of C2 pointers : No
Read offset correction : 102
Overread into Lead-In and Lead-Out : No
Fill up missing offset samples with silence : Yes
Delete leading and trailing silent blocks : No
Null samples used in CRC calculations : Yes
Used interface : Installed external ASPI interface
Used output format : User Defined Encoder
Selected bitrate : 1024 kBit/s
Quality : High
Add ID3 tag : No
Command line compressor : F:\Program Files\FLAC\flac.exe
Additional command line options : -T "DATE=%y" -T "GENRE=%m" -8 -V %s
TOC of the extracted CD
Track | Start | Length | Start sector | End sector
---------------------------------------------------------
1 | 0:00.00 | 4:47.11 | 0 | 21535
2 | 4:47.11 | 3:06.31 | 21536 | 35516
3 | 7:53.42 | 6:39.26 | 35517 | 65467
4 | 14:32.68 | 7:08.71 | 65468 | 97638
5 | 21:41.64 | 4:21.73 | 97639 | 117286
6 | 26:03.62 | 3:23.13 | 117287 | 132524
7 | 29:27.00 | 2:31.46 | 132525 | 143895
8 | 31:58.46 | 2:32.35 | 143896 | 155330
9 | 34:31.06 | 5:01.24 | 155331 | 177929
10 | 39:32.30 | 6:39.33 | 177930 | 207887
11 | 46:11.63 | 3:19.26 | 207888 | 222838
12 | 49:31.14 | 3:50.66 | 222839 | 240154
13 | 53:22.05 | 2:02.74 | 240155 | 249378
14 | 55:25.04 | 3:11.48 | 249379 | 263751
15 | 58:36.52 | 2:17.29 | 263752 | 274055
16 | 60:54.06 | 4:13.67 | 274056 | 293097
17 | 65:07.73 | 4:18.47 | 293098 | 312494
18 | 69:26.45 | 4:00.55 | 312495 | 330549
19 | 73:27.25 | 3:25.07 | 330550 | 345931
20 | 76:52.32 | 1:23.01 | 345932 | 352157
Range status and errors
Selected range
Filename K:\[R]\Various [2010] Classical 2011 CD2 (flac, rutracker)\Various - Classical 2011.wav
Peak level 98.8 %
Range quality 100.0 %
Test CRC A5DB49C3
Copy CRC A5DB49C3
Copy OK
No errors occurred
AccurateRip summary
Track 1 not present in database
Track 2 not present in database
Track 3 not present in database
Track 4 not present in database
Track 5 not present in database
Track 6 not present in database
Track 7 not present in database
Track 8 not present in database
Track 9 not present in database
Track 10 not present in database
Track 11 not present in database
Track 12 not present in database
Track 13 not present in database
Track 14 not present in database
Track 15 not present in database
Track 16 not present in database
Track 17 not present in database
Track 18 not present in database
Track 19 not present in database
Track 20 not present in database
None of the tracks are present in the AccurateRip database
End of status report

Содержание индексной карты (.CUE)

CD1

REM GENRE Classical
REM DATE 2010
REM DISCID 0A11DC14
REM COMMENT "ExactAudioCopy v0.99pb5"
PERFORMER "Various"
TITLE "Classical 2011"
FILE "Various - Classical 2011 CD1.flac" WAVE
TRACK 01 AUDIO
TITLE "L'amour est un enfant Boheme (Bizet)"
PERFORMER "Angela Gheorghiu"
INDEX 01 00:00:00
TRACK 02 AUDIO
TITLE "Recondita armonia (Puccini)"
PERFORMER "Placido Domingo"
INDEX 00 03:34:53
INDEX 01 03:38:73
TRACK 03 AUDIO
TITLE Gloria
PERFORMER "Karl Jenkins"
INDEX 00 06:33:11
INDEX 01 06:36:49
TRACK 04 AUDIO
TITLE "Bel raggio lusinghier (Rossini)"
PERFORMER "Joyce DiDonato"
INDEX 00 11:25:31
INDEX 01 11:28:26
TRACK 05 AUDIO
TITLE "Violin Concerto in A minor (J.S. Bach)"
PERFORMER "Nigel Kennedy"
INDEX 00 17:39:36
INDEX 01 17:42:28
TRACK 06 AUDIO
TITLE "O Waly, Waly"
PERFORMER "Sarah Brightman"
INDEX 00 21:28:43
INDEX 01 21:32:31
TRACK 07 AUDIO
TITLE "Nocturne No.2 (Chopin)"
PERFORMER Yundi
INDEX 00 26:07:35
INDEX 01 26:10:43
TRACK 08 AUDIO
TITLE "Deep Peace (Rutter)"
PERFORMER Libera
INDEX 00 30:39:56
INDEX 01 30:43:34
TRACK 09 AUDIO
TITLE "Concerto in A minor RV356 (Vivaldi)"
PERFORMER "Alison Balsom"
INDEX 00 34:12:29
INDEX 01 34:14:36
TRACK 10 AUDIO
TITLE "Malaguena (Lecuona)"
PERFORMER "Gabriela Montero"
INDEX 00 36:45:01
INDEX 01 36:48:09
TRACK 11 AUDIO
TITLE "Rococo Variations (Tchaikovksy)"
PERFORMER "Gautier Gapucon, Valery Gergiev"
INDEX 00 40:46:00
INDEX 01 40:48:57
TRACK 12 AUDIO
TITLE "Moment musical No.3 (Schubert)"
PERFORMER "David Fray"
INDEX 00 42:59:67
INDEX 01 43:03:73
TRACK 13 AUDIO
TITLE "Ricordati che sei (Vivaldi)"
PERFORMER "Vivica Genaux"
INDEX 00 45:15:32
INDEX 01 45:18:63
TRACK 14 AUDIO
TITLE "Clair de lune (Debussy)"
PERFORMER "Die 12 cellisten der Berliner Philharmoniker"
INDEX 00 49:01:39
INDEX 01 49:04:56
TRACK 15 AUDIO
TITLE "Ebben? Ne andro lontana (Catalani)"
PERFORMER "Maria Callas"
INDEX 00 53:36:59
INDEX 01 53:41:03
TRACK 16 AUDIO
TITLE "Fantasy on 'La traviata' (Verdi)"
PERFORMER "Emmanuel Pahud"
INDEX 00 58:32:71
INDEX 01 58:37:07
TRACK 17 AUDIO
TITLE "Misirlou (Roubanis)"
PERFORMER "Quatuor Ebene"
INDEX 00 61:24:70
INDEX 01 61:29:09
TRACK 18 AUDIO
TITLE "Quanto e bella (Donizetti)"
PERFORMER "Rolando Villazon"
INDEX 00 64:35:20
INDEX 01 64:38:58
TRACK 19 AUDIO
TITLE "Concierto de Aranjuez (Rodrigo)"
PERFORMER "Xuefei Yang"
INDEX 00 67:07:07
INDEX 01 67:09:21
TRACK 20 AUDIO
TITLE "Nessun dorma (Puccini)"
PERFORMER "Paul Potts"
INDEX 00 73:16:73
INDEX 01 73:19:00

CD2

REM GENRE Classical
REM DATE 2010
REM DISCID 3D125714
REM COMMENT "ExactAudioCopy v0.99pb5"
TITLE "Classical 2011"
PERFORMER "Various"
FILE "Various - Classical 2011 CD2.flac" WAVE
TRACK 01 AUDIO
TITLE "Inflammatus et accensus (Rossini)"
PERFORMER "Anna Netrebko"
INDEX 01 00:00:00
TRACK 02 AUDIO
TITLE "Amor (Richard Strauss)"
PERFORMER "Natalie Dessay"
INDEX 00 04:43:44
INDEX 01 04:47:11
TRACK 03 AUDIO
TITLE "Piano Concerto No.2 (Prokofiev)"
PERFORMER "Evgeny Kissin"
INDEX 00 07:49:55
INDEX 01 07:53:42
TRACK 04 AUDIO
TITLE "Violin Concerto No.1 (Bruch)"
PERFORMER "Sarah Chang"
INDEX 00 14:29:18
INDEX 01 14:32:68
TRACK 05 AUDIO
TITLE "Aquarela do Brasil (Barosso)"
PERFORMER "Placido Domingo"
INDEX 00 21:38:13
INDEX 01 21:41:64
TRACK 06 AUDIO
TITLE "Reminiscences de Don Juan (Liszt)"
PERFORMER "Martha Argerich, Mauricio Vallina"
INDEX 00 25:59:11
INDEX 01 26:03:62
TRACK 07 AUDIO
TITLE "Del ciglio dolente (Handel)"
PERFORMER "Kate Royal"
INDEX 00 29:22:61
INDEX 01 29:27:00
TRACK 08 AUDIO
TITLE "Trois Ecossaises (Chopin)"
PERFORMER "Alexandre Tharaud"
INDEX 00 31:54:01
INDEX 01 31:58:46
TRACK 09 AUDIO
TITLE "Intermezzo (Mascagni)"
PERFORMER "Russell Watson"
INDEX 00 34:27:34
INDEX 01 34:31:06
TRACK 10 AUDIO
TITLE "Piano Concerto No.4 (Rachmaninov)"
PERFORMER "Leif Ove Andsnes"
INDEX 00 39:26:67
INDEX 01 39:32:30
TRACK 11 AUDIO
TITLE "Wintersturme wichen dem Wonnemond (Wagner)"
PERFORMER "Simon O'Neill"
INDEX 00 46:08:59
INDEX 01 46:11:63
TRACK 12 AUDIO
TITLE "O soave fanciulla (Puccini)"
PERFORMER "Angela Gheorghiu, Roberto Alagna"
INDEX 00 49:27:40
INDEX 01 49:31:14
TRACK 13 AUDIO
TITLE "'Minute' Waltz in D flat (Chopin)"
PERFORMER "Ingrid Fliter"
INDEX 00 53:20:35
INDEX 01 53:22:05
TRACK 14 AUDIO
TITLE "Dovunque al mondo (Puccini)"
PERFORMER "Jonas Kaufmann"
INDEX 00 55:21:54
INDEX 01 55:25:04
TRACK 15 AUDIO
TITLE "Saper vorreste (Verdi)"
PERFORMER "Diana Damrau"
INDEX 00 58:33:22
INDEX 01 58:36:52
TRACK 16 AUDIO
TITLE "Pur ti miro (Monteverdi)"
PERFORMER "Philippe Jaroussky, Nuria Rial"
INDEX 00 60:50:32
INDEX 01 60:54:06
TRACK 17 AUDIO
TITLE "Suzel, bon di (Mascagni)"
PERFORMER "Luciano Pavarotti, Mirella Freni"
INDEX 00 65:04:36
INDEX 01 65:07:73
TRACK 18 AUDIO
TITLE "String Quartet No.14 (Schubert)"
PERFORMER "Belcea Quartet"
INDEX 00 69:21:30
INDEX 01 69:26:45
TRACK 19 AUDIO
TITLE "The Tempest (Ades)"
PERFORMER "Ian Bostridge, Thomas Ades"
INDEX 00 73:24:44
INDEX 01 73:27:25
TRACK 20 AUDIO
TITLE "The Nutcracker (Tchaikovsky)"
PERFORMER "Sir Simon Rattle"
INDEX 00 76:49:22
INDEX 01 76:52:32

Обложка, диски

Буклет




Показать сообщения:    

Текущее время: 10-Дек 19:41

Часовой пояс: UTC + 3


Вы не можете начинать темы
Вы не можете отвечать на сообщения
Вы не можете редактировать свои сообщения
Вы не можете удалять свои сообщения
Вы не можете голосовать в опросах
Вы не можете прикреплять файлы к сообщениям
Вы не можете скачивать файлы