(Classic, Opera, Pop) Pavarotti & Friends 2 - 1995, FLAC (image+.cue), lossless


 

[Цитировать]

Pavarotti & Friends 2
Жанр: Classic, Opera, Pop
Страна-производитель диска: Germany
Год издания диска: 1995
Издатель (лейбл): DECCA
Номер по каталогу: 444 460-2
EAN/UPC: 028944446029
Аудио кодек: FLAC (*.flac)
Тип рипа: image+.cue
Битрейт аудио: lossless
Продолжительность: 01:09:03
Источник (релизер): Собственный рип
Наличие сканов в содержимом раздачи: да (600dpi)
Треклист: см. ниже под спойлером
Доп. информация:
Официальный сайт, Wikipedia
Оркестр:Orchestra del Teatro Comunale di Bologna
Дирижеры: Leone Magiera & Michael Kamen

Треклист

01. Luciano Pavarotti / Chitarra romana [0:03:59.49]
02. Luciano Pavarotti & Nancy Gustafson / Moon river [0:03:22.84]
03. Nancy Gustafson / All I ask of you [0:03:28.49]
04. Andrea Bocelli / Mattinata [0:02:31.17]
05. Luciano Pavarotti & Giorgia / Santa Lucia luntana [0:04:46.82]
06. Andreas Vollenweider / Night fire dance [0:06:03.17]
07. Luciano Pavarotti & Nancy Gustafson / Verranno a te [0:06:58.82]
08. Bryan Adams / Please forgive me [0:06:31.33]
09. Giorgia / Who wants to live forever [0:04:09.00]
10. Luciano Pavarotti & Andrea Bocelli / Notte 'e piscatore [0:05:21.17]
11. Nancy Gustafson / O silver moon [0:06:22.49]
12. Luciano Pavarotti & Bryan Adams / 'O sole mio [0:03:11.50]
13. Luciano Pavarotti & Andreas Vollenweider / Ave Maria [0:03:02.82]
14. Luciano Pavarotti & Friends / All for love [0:05:24.17]
15. Luciano Pavarotti & Friends / Brindisi [0:03:50.00]

Превью сканов задней обложки и CD (150dpi)


-

Лог EAC создания рипа

Exact Audio Copy V0.99 prebeta 5 from 4. May 2009
EAC extraction logfile from 8. November 2010, 20:14
Various / Luciano Pavarotti & Friends2
Used drive : HL-DT-STDVDRAM_GSA-T20N Adapter: 0 ID: 0
Read mode : SecureUtilize accurate stream : YesDefeat audio cache : YesMake use of C2 pointers : No
Read offset correction : 667Overread into Lead-In and Lead-Out : NoFill up missing offset samples with silence : YesDelete leading and trailing silent blocks : NoNull samples used in CRC calculations : YesUsed interface : Native Win32 interface for Win NT & 2000
Used output format : User Defined EncoderSelected bitrate : 1024 kBit/sQuality : HighAdd ID3 tag : NoCommand line compressor : C:\Program Files\Exact Audio Copy\Flac\flac.exeAdditional command line options : -8 -V %s
TOC of the extracted CD
Track | Start | Length | Start sector | End sector --------------------------------------------------------- 1 | 0:00.33 | 3:59.37 | 33 | 17994 2 | 3:59.70 | 3:22.63 | 17995 | 33207 3 | 7:22.58 | 3:28.37 | 33208 | 48844 4 | 10:51.20 | 2:31.13 | 48845 | 60182 5 | 13:22.33 | 4:46.62 | 60183 | 81694 6 | 18:09.20 | 6:03.13 | 81695 | 108932 7 | 24:12.33 | 6:58.62 | 108933 | 140344 8 | 31:11.20 | 6:31.25 | 140345 | 169694 9 | 37:42.45 | 4:09.00 | 169695 | 188369 10 | 41:51.45 | 5:21.13 | 188370 | 212457 11 | 47:12.58 | 6:22.37 | 212458 | 241144 12 | 53:35.20 | 3:11.38 | 241145 | 255507 13 | 56:46.58 | 3:02.62 | 255508 | 269219 14 | 59:49.45 | 5:24.13 | 269220 | 293532 15 | 65:13.58 | 3:50.00 | 293533 | 310782
Range status and errors
Selected range
Filename C:\Music\Various - Luciano Pavarotti & Friends2.wav
Peak level 100.0 % Range quality 100.0 % Test CRC 6C9D6120 Copy CRC 6C9D6120 Copy OK
No errors occurred
AccurateRip summary
Track 1 accurately ripped (confidence 26) [BFC31907]Track 2 accurately ripped (confidence 25) [649F860B]Track 3 accurately ripped (confidence 26) [24BCC78D]Track 4 accurately ripped (confidence 26) [E136FEC1]Track 5 accurately ripped (confidence 25) [F6167A8A]Track 6 accurately ripped (confidence 26) [4C531933]Track 7 accurately ripped (confidence 24) [97467E39]Track 8 accurately ripped (confidence 25) [B0C63E0E]Track 9 accurately ripped (confidence 26) [1CCB0791]Track 10 accurately ripped (confidence 25) [C6626174]Track 11 accurately ripped (confidence 26) [ECED0521]Track 12 accurately ripped (confidence 26) [81FC03ED]Track 13 accurately ripped (confidence 26) [9B2D9FD3]Track 14 accurately ripped (confidence 26) [69E10EC1]Track 15 accurately ripped (confidence 24) [FDA16AB3]
All tracks accurately ripped
End of status report
-



Показать сообщения:    

Текущее время: 09-Дек 03:00

Часовой пояс: UTC + 3


Вы не можете начинать темы
Вы не можете отвечать на сообщения
Вы не можете редактировать свои сообщения
Вы не можете удалять свои сообщения
Вы не можете голосовать в опросах
Вы не можете прикреплять файлы к сообщениям
Вы не можете скачивать файлы