(Tribute/Crossover/Electronic) Влад Гамов и Алексей Топильский - Хорошо тРЕПарированный клавир (из Bach Libitum Project) - 2007, APE (image+.cue), lossless


 

[Цитировать]

Хорошо тРЕПарированный клавир (из Bach Libitum project)
Жанр: Tribute/Crossover/Electronic
Год выпуска диска: 2007
Производитель диска: Россия
Лейбл: Никитин
Кат.№: 183/07
Аудио кодек: APE
Тип рипа: image+.cue
Битрейт аудио: lossless
Продолжительность: 54:10
Источник: Собственный диск
Сканы: нет
Треклист:
01. Прелюдия и фуга № 1 до мажор
02. Прелюдия и фуга № 2 до минор
03. Прелюдия и фуга № 5 ре мажор
04. Прелюдия и фуга № 6 ре минор
05. Прелюдия и фуга № 8 ми бемоль минор
06. Прелюдия и фуга № 9 ми мажор
07. Прелюдия и фуга № 10 ми минор
08. Прелюдия и фуга № 12 фа минор
09. Прелюдия и фуга № 16 соль минор
10. Прелюдия и фуга № 17 ля бемоль мажор
11. Прелюдия и фуга № 22 си бемоль минор
12. Прелюдия и фуга № 24 си минор
Доп. информация:
Арт-медиа проект "БАХ ЛИБИТУМ" это:
- мюзиклы: "Страсти по Себастьяну", "Журчанье фуги трехголосной" и "Каприччио на отъезд возлюбленного Баха";
- театральная постановка "Себастьяновы страсти";
- художественный фильм "P.S." (Passion of Sebastian);
- телефильм "Три пришествия Себастьяна";
- книга стихов "О Бахе, музыке, искусстве";
- запись и издание на компакт-дисках песен-обработок Баха и др. композиторов объёмом 25 СД. В 2007 году выпущено Фирмой Грамзаписи "Никитин" 2 СД: - "Страсти по Себастьяну" и "Хорошо тРЕПарированный клавир"

отчёт ЕАС

Exact Audio Copy V0.99 prebeta 5 from 4. May 2009
Отчёт EAC об извлечении, выполненном 26. октября 2010, 9:04
Влад Гамов и Алексей Топильский / Хорошо тРЕПарированный Клавир
Дисковод: HL-DT-STDVDRAM GE20NU10 Adapter: 3 ID: 0
Режим чтения : ДостоверностьИспользование точного потока : ДаОтключение кэша аудио : ДаИспользование указателей C2 : Нет
Коррекция смещения при чтении : 667Способность читать области Lead-in и Lead-out : НетЗаполнение пропущенных сэмплов тишиной : ДаУдаление блоков с тишиной в начале и конце : НетПри вычислениях CRC использовались нулевые сэмплы : ДаИнтерфейс : Встроенный Win32-интерфейс для Win NT/2000
Выходной формат : Внутренние WAV-операцииФормат сэмплов : 44.100 Гц; 16 бит; стерео
TOC извлечённого CD
Трек | Старт | Длительность | Начальный сектор | Конечный сектор --------------------------------------------------------------------- 1 | 0:00.00 | 5:00.51 | 0 | 22550 2 | 5:00.51 | 5:05.28 | 22551 | 45453 3 | 10:06.04 | 4:32.15 | 45454 | 65868 4 | 14:38.19 | 3:57.32 | 65869 | 83675 5 | 18:35.51 | 4:53.62 | 83676 | 105712 6 | 23:29.38 | 4:19.35 | 105713 | 125172 7 | 27:48.73 | 6:03.06 | 125173 | 152403 8 | 33:52.04 | 3:39.05 | 152404 | 168833 9 | 37:31.09 | 3:49.08 | 168834 | 186016 10 | 41:20.17 | 3:51.12 | 186017 | 203353 11 | 45:11.29 | 4:16.23 | 203354 | 222576 12 | 49:27.52 | 4:42.49 | 222577 | 243775
Характеристики диапазона извлечения и сообщения об ошибках
Выбранный диапазон
Имя файла C:\...\Влад Гамов и Алексей Топильский - Хорошо тРЕПарированный Клавир.wav
Пиковый уровень 100.0 % Качество диапазона 100.0 % CRC теста 61BC3EAE CRC копии 61BC3EAE Копирование... OK
Ошибок не произошло
AccurateRip: сводка
Трек 1 нет в базе данныхТрек 2 нет в базе данныхТрек 3 нет в базе данныхТрек 4 нет в базе данныхТрек 5 нет в базе данныхТрек 6 нет в базе данныхТрек 7 нет в базе данныхТрек 8 нет в базе данныхТрек 9 нет в базе данныхТрек 10 нет в базе данныхТрек 11 нет в базе данныхТрек 12 нет в базе данных
Ни одного трека нет в базе AccurateRip
Конец отчёта



Показать сообщения:    

Текущее время: 03-Дек 03:23

Часовой пояс: UTC + 3


Вы не можете начинать темы
Вы не можете отвечать на сообщения
Вы не можете редактировать свои сообщения
Вы не можете удалять свои сообщения
Вы не можете голосовать в опросах
Вы не можете прикреплять файлы к сообщениям
Вы не можете скачивать файлы