(Classical / Crossover) Emma Shapplin - Carmine Meo - 1997, FLAC (image+.cue) lossless


 

[Цитировать]

Emma Shapplin / Carmine Meo
Жанр: Classical / Crossover
Страна-производитель диска: USA
Год издания диска: 1997
Издатель (лейбл): Pendragon Records
Страна: France
Аудио кодек: FLAC (*.flac)
Тип рипа: image+.cue
Битрейт аудио: lossless
Продолжительность: 41:41
Источник (релизер): Рип из личной коллекции
Наличие сканов в содержимом раздачи: да
Треклист:
1. De l'abime au rivage... 1:10
2. Spente le stelle 4:27
3. Vedi, Maria... 5:04
4. Carmine meo 4:17
5. Cuor senza sangue 4:03
6. Favola breve 4:32
7. Reprendo mai piu 3:44
8. Une ombre dans le ciel 0:58
9. Lucifero, quel giorno... 3:34
10. Ira di Dio 4:35
11. Miserere, venere... 3:54
12. А la frontiere du reve 1:19

Лог создания рипа

Exact Audio Copy V0.99 prebeta 4 from 23. January 2008
EAC extraction logfile from 26. October 2010, 20:13
Emma Shapplin / Carmine Meo
Used drive : SAMSUNG CD-R/RW SW-252S Adapter: 0 ID: 0
Read mode : SecureUtilize accurate stream : YesDefeat audio cache : YesMake use of C2 pointers : No
Read offset correction : 6Overread into Lead-In and Lead-Out : NoFill up missing offset samples with silence : YesDelete leading and trailing silent blocks : NoNull samples used in CRC calculations : YesUsed interface : Native Win32 interface for Win NT & 2000
Used output format : Internal WAV RoutinesSample format : 44.100 Hz; 16 Bit; Stereo
TOC of the extracted CD
Track | Start | Length | Start sector | End sector --------------------------------------------------------- 1 | 0:00.00 | 1:10.17 | 0 | 5266 2 | 1:10.17 | 4:27.70 | 5267 | 25361 3 | 5:38.12 | 5:04.10 | 25362 | 48171 4 | 10:42.22 | 4:17.45 | 48172 | 67491 5 | 14:59.67 | 4:03.50 | 67492 | 85766 6 | 19:03.42 | 4:32.03 | 85767 | 106169 7 | 23:35.45 | 3:44.52 | 106170 | 123021 8 | 27:20.22 | 0:58.10 | 123022 | 127381 9 | 28:18.32 | 3:34.23 | 127382 | 143454 10 | 31:52.55 | 4:35.35 | 143455 | 164114 11 | 36:28.15 | 3:54.12 | 164115 | 181676 12 | 40:22.27 | 1:19.03 | 181677 | 187604
Range status and errors
Selected range
Filename D:\Audio CDs Backup\_torr\_delete after seeding\Emma Shapplin 1997 - Carmine Meo\cdimage.wav
Peak level 98.8 % Range quality 100.0 % Copy CRC 7F9F7C5C Copy OK
No errors occurred
AccurateRip summary
Track 1 cannot be verified as accurate (confidence 35) [B8F2412E], AccurateRip returned [A722B63A]Track 2 cannot be verified as accurate (confidence 35) [105C129E], AccurateRip returned [AD8FAE7F]Track 3 cannot be verified as accurate (confidence 35) [1879A549], AccurateRip returned [41612610]Track 4 cannot be verified as accurate (confidence 36) [5CBCBE84], AccurateRip returned [E3FFD764]Track 5 cannot be verified as accurate (confidence 36) [E13654C2], AccurateRip returned [D1F3BA16]Track 6 cannot be verified as accurate (confidence 36) [C28772E6], AccurateRip returned [102D9058]Track 7 cannot be verified as accurate (confidence 36) [2AFE7E68], AccurateRip returned [3F88DD22]Track 8 cannot be verified as accurate (confidence 35) [2B5D0413], AccurateRip returned [48294766]Track 9 cannot be verified as accurate (confidence 36) [0954B1AE], AccurateRip returned [DD039353]Track 10 cannot be verified as accurate (confidence 36) [3327B48C], AccurateRip returned [4C724330]Track 11 cannot be verified as accurate (confidence 36) [2920C21D], AccurateRip returned [965A3B71]Track 12 cannot be verified as accurate (confidence 37) [1C8EB65D], AccurateRip returned [60997EBB]
No tracks could be verified as accurateYou may have a different pressing from the one(s) in the database
End of status report

Лог проверки качества

AUDIOCHECKER v1.2 - by Dester - opdester@freemail.hu~~~~~~~~~~~~~~~~~
1 -===- D:\Audio CDs Backup\_torr\_delete after seeding\Emma Shapplin 1997 - Carmine Meo\cdimage.flac Extracted successfully Conclusion: This track looks like CDDA with probability 100%
Доп. информация: Первый диск легендарной исполнительницы



Показать сообщения:    

Текущее время: 09-Дек 06:57

Часовой пояс: UTC + 3


Вы не можете начинать темы
Вы не можете отвечать на сообщения
Вы не можете редактировать свои сообщения
Вы не можете удалять свои сообщения
Вы не можете голосовать в опросах
Вы не можете прикреплять файлы к сообщениям
Вы не можете скачивать файлы