(Классика в современной обработке) Петр Чайковский - Мировая классика в современной обработке (2005) FLAC (Image+CUE) - 2005, FLAC (image+.cue), lossless


 

[Цитировать]

Петр Чайковский - Мировая классика в современной обработке (2005) FLAC (Image+CUE)
Исполнитель:Московский классический театр
Источник рипа:собственный рип
Жанр: Классика в современной обработке
Год выпуска диска: 2005
Производитель диска: Россия
Аудио кодек: FLAC
Тип рипа: image+.cue
Битрейт аудио: lossless
Продолжительность: 0:59:23
Треклист:
1. Концерт №1 Аллегро нон троппо
2. Неополитанский танец
3. Вальс (Спящая красавица)
4. Баркарола (Июнь)
5. Танец маленьких лебедей
6. Танец феи драже
7. Сладкая греза
8. Венгерский танец
9. Сцена (Лебединое озеро)
10. Мазурка
11. Вальс цветов
12. Арабский танец
13. Испанский танец
14. Подснежник
15. Танец пастухов
16. Марии (Щелкунчик)
17. Трепак (русский танец)
18. Марии деревянных солдатиков
19. Китайский танец
20. Вальс (Лебединое озеро)

Отчет EAC:

Exact Audio Copy V0.99 prebeta 5 from 4. May 2009
Отчёт EAC об извлечении, выполненном 17. июля 2009, 11:39
Unknown Artist / Unknown Title
Дисковод: LITE-ON CD-RW SOHR-5238S Adapter: 1 ID: 1
Режим чтения : Достоверность
Использование точного потока : Да
Отключение кэша аудио : Да
Использование указателей C2 : Нет
Коррекция смещения при чтении : 6
Способность читать области Lead-in и Lead-out : Нет
Заполнение пропущенных сэмплов тишиной : Да
Удаление блоков с тишиной в начале и конце : Нет
При вычислениях CRC использовались нулевые сэмплы : Нет
Интерфейс : Установленный внешний ASPI-интерфейс
Выходной формат : Пользовательский кодировщик
Выбранный битрейт : 128 kBit/s
Качество : Высокий
Добавление ID3-тэга : Нет
Утилита сжатия : K:\_Install\_Software\_Audio\FLAC\flac.exe
Дополнительные параметры : -8 -V %s
TOC извлечённого CD
Трек | Старт | Длительность | Начальный сектор | Конечный сектор
---------------------------------------------------------------------
1 | 0:00.00 | 2:50.29 | 0 | 12778
2 | 2:50.29 | 1:15.37 | 12779 | 18440
3 | 4:05.66 | 4:40.50 | 18441 | 39490
4 | 8:46.41 | 4:23.73 | 39491 | 59288
5 | 13:10.39 | 1:28.00 | 59289 | 65888
6 | 14:38.39 | 1:46.28 | 65889 | 73866
7 | 16:24.67 | 2:10.37 | 73867 | 83653
8 | 18:35.29 | 2:49.49 | 83654 | 96377
9 | 21:25.03 | 4:40.23 | 96378 | 117400
10 | 26:05.26 | 3:00.72 | 117401 | 130972
11 | 29:06.23 | 4:12.70 | 130973 | 149942
12 | 33:19.18 | 3:01.68 | 149943 | 163585
13 | 36:21.11 | 2:40.67 | 163586 | 175652
14 | 39:02.03 | 3:02.20 | 175653 | 189322
15 | 42:04.23 | 2:42.33 | 189323 | 201505
16 | 44:46.56 | 2:41.20 | 201506 | 213600
17 | 47:28.01 | 1:16.07 | 213601 | 219307
18 | 48:44.08 | 2:16.00 | 219308 | 229507
19 | 51:00.08 | 1:48.20 | 229508 | 237627
20 | 52:48.28 | 5:35.23 | 237628 | 262775
Характеристики диапазона извлечения и сообщения об ошибках
Выбранный диапазон
Имя файла K:\Unknown Artist - Unknown Title.wav
Пиковый уровень 100.0 %
Качество диапазона 100.0 %
CRC теста E5BD97B1
CRC копии E5BD97B1
Копирование... OK
Ошибок не произошло
Конец отчёта



Показать сообщения:    

Текущее время: 07-Дек 21:22

Часовой пояс: UTC + 3


Вы не можете начинать темы
Вы не можете отвечать на сообщения
Вы не можете редактировать свои сообщения
Вы не можете удалять свои сообщения
Вы не можете голосовать в опросах
Вы не можете прикреплять файлы к сообщениям
Вы не можете скачивать файлы