(Classical Crossover/Classical Pop) All Angels - Into Paradise - 2007, FLAC (tracks+.cue), lossless


 

[Цитировать]

All Angels - Into Paradise
Жанр: Classical Crossover/Classical Pop
Год издания диска: 2007
Страна: England
Аудио кодек: FLAC (*.flac)
Тип рипа: tracks+.cue
Битрейт аудио: lossless
Продолжительность: 00:49:14
Источник (релизер): Waffles.fm (mattstan)
Наличие сканов в содержимом раздачи: да
Треклист:
01 - Sancte Deus (Nimrod) (3:24)
02 - In Paradisum (3:08)
03 - Make Me a Channel of Your Peace (2:37)
04 - Swing Low (1:27)
05 - The Scientist (4:00)
06 - Sound of Silence (4:06)
07 - Lament (Band of Brothers) (4:21)
08 - Lift Up Your Voice (Arrival of the Queen of Sheba) (4:07)
09 - Sull' Aria (3:04)
10 - Pie Jesu (4:37)
11 - Singing You Through (4:31)
12 - Nothing Compares to You (4:31)
13 - Zadok the Priest (5:21)

Отчёт EAC

Exact Audio Copy V0.99 prebeta 5 from 4. May 2009
EAC extraction logfile from 30. December 2009, 15:59
All Angels / Into Paradise
Used drive : TSSTcorpDVD-ROM SH-D163B Adapter: 5 ID: 0
Read mode : Secure
Utilize accurate stream : Yes
Defeat audio cache : Yes
Make use of C2 pointers : No
Read offset correction : 6
Overread into Lead-In and Lead-Out : No
Fill up missing offset samples with silence : Yes
Delete leading and trailing silent blocks : No
Null samples used in CRC calculations : Yes
Used interface : Native Win32 interface for Win NT & 2000
Gap handling : Appended to previous track
Used output format : User Defined Encoder
Selected bitrate : 768 kBit/s
Quality : High
Add ID3 tag : No
Command line compressor : C:\Program Files\Exact Audio Copy\FLAC\FLAC.EXE
Additional command line options : -V -8 -T "artist=%a" -T "title=%t" -T "album=%g" -T "date=%y" -T "tracknumber=%n" -T "genre=%m" %s
TOC of the extracted CD
Track | Start | Length | Start sector | End sector
---------------------------------------------------------
1 | 0:00.00 | 3:24.65 | 0 | 15364
2 | 3:24.65 | 3:08.27 | 15365 | 29491
3 | 6:33.17 | 2:37.51 | 29492 | 41317
4 | 9:10.68 | 1:27.69 | 41318 | 47911
5 | 10:38.62 | 4:00.65 | 47912 | 65976
6 | 14:39.52 | 4:06.07 | 65977 | 84433
7 | 18:45.59 | 4:21.18 | 84434 | 104026
8 | 23:07.02 | 4:07.68 | 104027 | 122619
9 | 27:14.70 | 3:04.29 | 122620 | 136448
10 | 30:19.24 | 4:37.29 | 136449 | 157252
11 | 34:56.53 | 4:31.24 | 157253 | 177601
12 | 39:28.02 | 4:31.26 | 177602 | 197952
13 | 43:59.28 | 5:21.55 | 197953 | 222082
Track 1
Filename C:\Music\Rips\All Angels - Into Paradise\01 - Sancte Deus (Nimrod).wav
Pre-gap length 0:00:02.00
Peak level 99.6 %
Track quality 99.9 %
Test CRC ACFACCCD
Copy CRC ACFACCCD
Accurately ripped (confidence 14) [F728BE43]
Copy OK
Track 2
Filename C:\Music\Rips\All Angels - Into Paradise\02 - In Paradisum.wav
Pre-gap length 0:00:01.57
Peak level 99.5 %
Track quality 100.0 %
Test CRC 644C492A
Copy CRC 644C492A
Accurately ripped (confidence 14) [421C5D0C]
Copy OK
Track 3
Filename C:\Music\Rips\All Angels - Into Paradise\03 - Make Me A Channel Of Your Peace.wav
Pre-gap length 0:00:02.74
Peak level 99.6 %
Track quality 100.0 %
Test CRC 071F4DC2
Copy CRC 071F4DC2
Accurately ripped (confidence 14) [976A2561]
Copy OK
Track 4
Filename C:\Music\Rips\All Angels - Into Paradise\04 - Swing Low.wav
Pre-gap length 0:00:02.37
Peak level 95.8 %
Track quality 100.0 %
Test CRC 380741C4
Copy CRC 380741C4
Accurately ripped (confidence 14) [0BF794E5]
Copy OK
Track 5
Filename C:\Music\Rips\All Angels - Into Paradise\05 - The Scientist.wav
Pre-gap length 0:00:00.82
Peak level 99.6 %
Track quality 100.0 %
Test CRC 1EEE1A70
Copy CRC 1EEE1A70
Accurately ripped (confidence 14) [F26C7729]
Copy OK
Track 6
Filename C:\Music\Rips\All Angels - Into Paradise\06 - Sound Of Silence.wav
Pre-gap length 0:00:01.93
Peak level 99.6 %
Track quality 100.0 %
Test CRC B21E1FAE
Copy CRC B21E1FAE
Accurately ripped (confidence 14) [3929EA07]
Copy OK
Track 7
Filename C:\Music\Rips\All Angels - Into Paradise\07 - Lament (Band Of Brothers).wav
Pre-gap length 0:00:01.93
Peak level 99.6 %
Track quality 100.0 %
Test CRC 09A06541
Copy CRC 09A06541
Accurately ripped (confidence 14) [12E98DEC]
Copy OK
Track 8
Filename C:\Music\Rips\All Angels - Into Paradise\08 - Lift Up Your Voice (The Arrival Of The Queen Of Sheba).wav
Pre-gap length 0:00:01.18
Peak level 99.6 %
Track quality 100.0 %
Test CRC 6C15004C
Copy CRC 6C15004C
Accurately ripped (confidence 14) [5C4B855C]
Copy OK
Track 9
Filename C:\Music\Rips\All Angels - Into Paradise\09 - Sull' Aria.wav
Pre-gap length 0:00:01.57
Peak level 99.6 %
Track quality 100.0 %
Test CRC 7C0E6D84
Copy CRC 7C0E6D84
Accurately ripped (confidence 14) [39FFAD74]
Copy OK
Track 10
Filename C:\Music\Rips\All Angels - Into Paradise\10 - Pie Jesu.wav
Pre-gap length 0:00:01.74
Peak level 97.9 %
Track quality 100.0 %
Test CRC 9687C86E
Copy CRC 9687C86E
Accurately ripped (confidence 14) [7C38318E]
Copy OK
Track 11
Filename C:\Music\Rips\All Angels - Into Paradise\11 - Singing You Through.wav
Pre-gap length 0:00:01.65
Peak level 88.8 %
Track quality 99.9 %
Test CRC 00C09EC5
Copy CRC 00C09EC5
Accurately ripped (confidence 14) [EA09CBA0]
Copy OK
Track 12
Filename C:\Music\Rips\All Angels - Into Paradise\12 - Nothing Compares To You.wav
Pre-gap length 0:00:01.96
Peak level 99.5 %
Track quality 100.0 %
Test CRC CD9F1A32
Copy CRC CD9F1A32
Accurately ripped (confidence 14) [62E1DCA6]
Copy OK
Track 13
Filename C:\Music\Rips\All Angels - Into Paradise\13 - Zadok The Priest.wav
Pre-gap length 0:00:01.08
Peak level 99.6 %
Track quality 100.0 %
Test CRC 30449C25
Copy CRC 30449C25
Accurately ripped (confidence 14) [FDBAE245]
Copy OK
All tracks accurately ripped
No errors occurred
End of status report

.cue

REM GENRE "Classical Crossover"
REM DATE 2007
REM DISCID AA0B910D
REM COMMENT "ExactAudioCopy v0.99pb5"
FILE "01 - Sancte Deus (Nimrod).wav" WAVE
TRACK 01 AUDIO
INDEX 01 00:00:00
TRACK 02 AUDIO
INDEX 00 03:23:22
FILE "02 - In Paradisum.wav" WAVE
INDEX 01 00:00:00
TRACK 03 AUDIO
INDEX 00 03:05:46
FILE "03 - Make Me A Channel Of Your Peace.wav" WAVE
INDEX 01 00:00:00
TRACK 04 AUDIO
INDEX 00 02:35:23
FILE "04 - Swing Low.wav" WAVE
INDEX 01 00:00:00
TRACK 05 AUDIO
INDEX 00 01:27:07
FILE "05 - The Scientist.wav" WAVE
INDEX 01 00:00:00
TRACK 06 AUDIO
INDEX 00 03:58:70
FILE "06 - Sound Of Silence.wav" WAVE
INDEX 01 00:00:00
TRACK 07 AUDIO
INDEX 00 04:04:12
FILE "07 - Lament (Band Of Brothers).wav" WAVE
INDEX 01 00:00:00
TRACK 08 AUDIO
INDEX 00 04:20:04
FILE "08 - Lift Up Your Voice (The Arrival Of The Queen Of Sheba).wav" WAVE
INDEX 01 00:00:00
TRACK 09 AUDIO
INDEX 00 04:06:25
FILE "09 - Sull' Aria.wav" WAVE
INDEX 01 00:00:00
TRACK 10 AUDIO
INDEX 00 03:02:48
FILE "10 - Pie Jesu.wav" WAVE
INDEX 01 00:00:00
TRACK 11 AUDIO
INDEX 00 04:35:55
FILE "11 - Singing You Through.wav" WAVE
INDEX 01 00:00:00
TRACK 12 AUDIO
INDEX 00 04:29:27
FILE "12 - Nothing Compares To You.wav" WAVE
INDEX 01 00:00:00
TRACK 13 AUDIO
INDEX 00 04:30:20
FILE "13 - Zadok The Priest.wav" WAVE
INDEX 01 00:00:00

Лог Audiochecker

AUDIOCHECKER v2.0 beta (build 457) - by Dester - opdester@freemail.hu
~~~~~~~~~~~~~~~~~~~~~~~~~~~~~~~~~~
Started at: вторник, 05. 10. 2010. - 12:42.26
13 files found
01 -===- F:\Мои документы\All Angels - 2007 - Into Paradise\01 - Sancte Deus (Nimrod).flac
Extracted successfully
Conclusion: this track is CDDA with probability 100%
Tempfile successfully deleted.
02 -===- F:\Мои документы\All Angels - 2007 - Into Paradise\02 - In Paradisum.flac
Extracted successfully
Conclusion: this track is CDDA with probability 100%
Tempfile successfully deleted.
03 -===- F:\Мои документы\All Angels - 2007 - Into Paradise\03 - Make Me A Channel Of Your Peace.flac
Extracted successfully
Conclusion: this track is CDDA with probability 100%
Tempfile successfully deleted.
04 -===- F:\Мои документы\All Angels - 2007 - Into Paradise\04 - Swing Low.flac
Extracted successfully
Conclusion: this track is CDDA with probability 100%
Tempfile successfully deleted.
05 -===- F:\Мои документы\All Angels - 2007 - Into Paradise\05 - The Scientist.flac
Extracted successfully
Conclusion: this track is CDDA with probability 100%
Tempfile successfully deleted.
06 -===- F:\Мои документы\All Angels - 2007 - Into Paradise\06 - Sound Of Silence.flac
Extracted successfully
Conclusion: this track is CDDA with probability 100%
Tempfile successfully deleted.
07 -===- F:\Мои документы\All Angels - 2007 - Into Paradise\07 - Lament (Band Of Brothers).flac
Extracted successfully
Conclusion: this track is CDDA with probability 100%
Tempfile successfully deleted.
08 -===- F:\Мои документы\All Angels - 2007 - Into Paradise\08 - Lift Up Your Voice (The Arrival Of The Queen Of Sheba).flac
Extracted successfully
Conclusion: this track is CDDA with probability 100%
Tempfile successfully deleted.
09 -===- F:\Мои документы\All Angels - 2007 - Into Paradise\09 - Sull' Aria.flac
Extracted successfully
Conclusion: this track is CDDA with probability 100%
Tempfile successfully deleted.
10 -===- F:\Мои документы\All Angels - 2007 - Into Paradise\10 - Pie Jesu.flac
Extracted successfully
Conclusion: this track is CDDA with probability 100%
Tempfile successfully deleted.
11 -===- F:\Мои документы\All Angels - 2007 - Into Paradise\11 - Singing You Through.flac
Extracted successfully
Conclusion: this track is CDDA with probability 100%
Tempfile successfully deleted.
12 -===- F:\Мои документы\All Angels - 2007 - Into Paradise\12 - Nothing Compares To You.flac
Extracted successfully
Conclusion: this track is CDDA with probability 100%
Tempfile successfully deleted.
13 -===- F:\Мои документы\All Angels - 2007 - Into Paradise\13 - Zadok The Priest.flac
Extracted successfully
Conclusion: this track is CDDA with probability 100%
Tempfile successfully deleted.
Finished at: вторник, 05. 10. 2010. - 12:54.35 (operation time: 0:12.08)



Показать сообщения:    

Текущее время: 07-Дек 19:25

Часовой пояс: UTC + 3


Вы не можете начинать темы
Вы не можете отвечать на сообщения
Вы не можете редактировать свои сообщения
Вы не можете удалять свои сообщения
Вы не можете голосовать в опросах
Вы не можете прикреплять файлы к сообщениям
Вы не можете скачивать файлы