(Классика в современной обработке) Vilona - Vilona - 2006, FLAC (image+.cue), lossless


 

[Цитировать]

Vilona - Vilona
Жанр: Классика в современной обработке
Год выпуска диска: 2006
Производитель диска: Россия
Аудио кодек: FLAC
Тип рипа: image+.cue
Битрейт аудио: lossless
Продолжительность: 36.54
Треклист:
1. Allegro
2. Europa
3. Through the mist
4. Monti: Chardash
5. The Rise
6. Irish Dances
7. Habanera
8. Spain
9. Rainbow Mix
10. Passacaglia
11. Vilona
Отчёт EAC

скрытый текст

Exact Audio Copy V0.99 prebeta 5 from 4. May 2009
Отчёт EAC об извлечении, выполненном 20. декабря 2009, 23:15
Vilona / Vilona
Дисковод: MATSHITADVD-RAM UJ-850S Adapter: 3 ID: 0
Режим чтения : Достоверность
Использование точного потока : Да
Отключение кэша аудио : Да
Использование указателей C2 : Нет
Коррекция смещения при чтении : 102
Способность читать области Lead-in и Lead-out : Нет
Заполнение пропущенных сэмплов тишиной : Да
Удаление блоков с тишиной в начале и конце : Нет
При вычислениях CRC использовались нулевые сэмплы : Да
Интерфейс : Встроенный Win32-интерфейс для Win NT/2000
Выходной формат : Пользовательский кодировщик
Выбранный битрейт : 768 kBit/s
Качество : Высокий
Добавление ID3-тэга : Нет
Утилита сжатия : D:\Program Files\Exact Audio Copy\FLAC\FLAC.EXE
Дополнительные параметры : -6 -V -T "ARTIST=%a" -T "TITLE=%t" -T "ALBUM=%g" -T "DATE=%y" -T "TRACKNUMBER=%n" -T "GENRE=%m" -T "COMMENT=%e" %s -o %d
TOC извлечённого CD
Трек | Старт | Длительность | Начальный сектор | Конечный сектор
---------------------------------------------------------------------
1 | 0:00.00 | 3:39.07 | 0 | 16431
2 | 3:39.07 | 3:11.63 | 16432 | 30819
3 | 6:50.70 | 4:15.50 | 30820 | 49994
4 | 11:06.45 | 3:25.73 | 49995 | 65442
5 | 14:32.43 | 3:16.22 | 65443 | 80164
6 | 17:48.65 | 3:19.32 | 80165 | 95121
7 | 21:08.22 | 3:07.35 | 95122 | 109181
8 | 24:15.57 | 2:48.66 | 109182 | 121847
9 | 27:04.48 | 2:37.45 | 121848 | 133667
10 | 29:42.18 | 3:06.31 | 133668 | 147648
11 | 32:48.49 | 4:05.34 | 147649 | 166057
Характеристики диапазона извлечения и сообщения об ошибках
Выбранный диапазон
Имя файла C:\EAC\Vilona - Vilona\Vilona - Vilona.wav
Пиковый уровень 100.0 %
Качество диапазона 100.0 %
CRC копии EEEADD3F
Копирование... OK
Ошибок не произошло
AccurateRip: сводка
Трек 1 нет в базе данных
Трек 2 нет в базе данных
Трек 3 нет в базе данных
Трек 4 нет в базе данных
Трек 5 нет в базе данных
Трек 6 нет в базе данных
Трек 7 нет в базе данных
Трек 8 нет в базе данных
Трек 9 нет в базе данных
Трек 10 нет в базе данных
Трек 11 нет в базе данных
Ни одного трека нет в базе AccurateRip
Конец отчёта
Доп. информация:
Рип не мой. Взялся откуда-то из локалки или с торента. Но музыка очень понравилась и решил поделитьсмя.
Биография.

скрытый текст

Первое выступление скрипичного дуэта в составе Дмитриевой Ольги и Шаяхметовой Елены прошло весной 2003 года. В то время дуэт еще не имел названия - оно появилось спустя несколько месяцев. Изначально выступления проходили в кафе, ресторанах, развлекательных заведениях и на открытых площадках города. Постепенно дуэт приобретал известность среди горожан, накапливал и нарабатывал программу выступлений, завоевывал первых поклонников. С начала 2006 года началась работа по созданию и записи CD-диска. К моменту официальной регистрации ООО "Скрипичный дуэт "Вилона" в апреле 2006 года в программе дуэта уже не только чужие произведения, но и собственные композиции. В ноябре 2006 года выходит в свет первый собственный альбом "Вилоны" с одноименным названием. В феврале 2007 года в магазинах города появляется в продаже и первый DVD-диск с записью "живого" выступления дуэта на презентации своего альбома. Дуэт продолжает становиться известным и популярным не только в городском и региональном масштабах, но и по всей стране и за рубежом. Дуэт длительное время занимает высокие места в рейтингах голливудского сайта www.garageband.com, а некоторые его композиции получают наивысшие оценки и титулы "Track of the Day", "Track of the Week" и др. и попадают в эфир некоторых радиостанций на территории США. Весной 2007 года видеоклип "Вилоны" попадает в сетку вещания "Первого музыкального канала" в Белоруссии. А летом 2007 года приходит и первая крупная победа дуэта в России - получив наивысшую оценку слушателей на сайте www.rockgeroy.ru и, соответственно, заняв первое место в конкурсе, "Вилона" получает приглашение в Москву, Лужники на рок-фестиваль "Герой нашего времени". Ближе к концу лета дуэт получает приглашение и становится одним их хедлайнеров "Славянского Фестиваля", проходящего в январе 2008 года в городе Юджин, штат Орегон, США.



Показать сообщения:    

Текущее время: 08-Дек 19:11

Часовой пояс: UTC + 3


Вы не можете начинать темы
Вы не можете отвечать на сообщения
Вы не можете редактировать свои сообщения
Вы не можете удалять свои сообщения
Вы не можете голосовать в опросах
Вы не можете прикреплять файлы к сообщениям
Вы не можете скачивать файлы