(Symphonic/Instrumental) The London Symphony Orchestra - The Best of Classic Rock - 1997, FLAC (image+.cue), lossless


 

[Цитировать]

The London Symphony Orchestra - The Best of Classic Rock
Жанр: Symphonic/Instrumental
Год выпуска диска: 1997
Производитель диска: Ukraine
Аудио кодек: FLAC
Тип рипа: image+.cue
Битрейт аудио: lossless
Продолжительность: 77:19
Дирижёр: Colin Davis
Трэклист:
01 - Born In The U.S.A. (B. Springsteen) [3:25]
02 - Light My Fire (Morrison, Densmore, Krieger & Manzarek) [3:09]
03 - All Right Now (P. Rodgers & A. Fraser) [3:47]
04 - The Living Years (M. Rutherford & B. A. Robertson) [6:38]
05 - Purple Rain (Prince) [5:17]
06 - It's A Sin (N. Tennant & C. Lowe) [4:57]
07 - I Want It All (F. Mercury, R. Taylor, J. Deacon & B. May) [4:58]
08 - I Still Haven't Found What I'm Looking For (D. Evans, P. Hewson, A. Clayton & L. Mullen) [4:10]
09 - Eloise (P. Ryan) [5:46]
10 - You're The Voice (Reid, Thomson, Ryder & Quanta) [4:27]
11 - She's Not There (R. Argent) [3:55]
12 - Wind Of Change (K. Meine) [4:50]
13 - Drive (R. Ocasek) [3:53]
14 - Two Tribes - Relax (Gill, Johnson & O'Toole) [8:16]
15 - Saturday Night's Alright For Fighting (B. Taupin & E. John) [4:26]
16 - The Final Countdown (J. Tempest) [5:25]
Доп. информация: Рип с диска из собственной коллекции.

Отчёт EAC

Exact Audio Copy V0.99 prebeta 5 from 4. May 2009
Отчёт EAC об извлечении, выполненном 22. мая 2010, 10:58
Various / The London Symphony Orchestra - The Best of Classic Rock
Дисковод: TEAC CD-W548E Adapter: 3 ID: 1
Режим чтения : ДостоверностьИспользование точного потока : ДаОтключение кэша аудио : ДаИспользование указателей C2 : Нет
Коррекция смещения при чтении : 12Способность читать области Lead-in и Lead-out : НетЗаполнение пропущенных сэмплов тишиной : ДаУдаление блоков с тишиной в начале и конце : НетПри вычислениях CRC использовались нулевые сэмплы : ДаИнтерфейс : Встроенный Win32-интерфейс для Win NT/2000
Выходной формат : Пользовательский кодировщикВыбранный битрейт : 320 kBit/sКачество : ВысокийДобавление ID3-тэга : НетУтилита сжатия : C:\Program Files\FLAC\flac.exeДополнительные параметры : -8 -V %s
TOC извлечённого CD
Трек | Старт | Длительность | Начальный сектор | Конечный сектор --------------------------------------------------------------------- 1 | 0:00.00 | 3:25.42 | 0 | 15416 2 | 3:25.42 | 3:09.13 | 15417 | 29604 3 | 6:34.55 | 3:47.05 | 29605 | 46634 4 | 10:21.60 | 6:38.15 | 46635 | 76499 5 | 17:00.00 | 5:17.32 | 76500 | 100306 6 | 22:17.32 | 4:57.20 | 100307 | 122601 7 | 27:14.52 | 4:58.65 | 122602 | 145016 8 | 32:13.42 | 4:09.70 | 145017 | 163761 9 | 36:23.37 | 5:46.50 | 163762 | 189761 10 | 42:10.12 | 4:27.20 | 189762 | 209806 11 | 46:37.32 | 3:55.65 | 209807 | 227496 12 | 50:33.22 | 4:50.33 | 227497 | 249279 13 | 55:23.55 | 3:53.12 | 249280 | 266766 14 | 59:16.67 | 8:16.20 | 266767 | 303986 15 | 67:33.12 | 4:26.50 | 303987 | 323986 16 | 71:59.62 | 5:25.60 | 323987 | 348421
Характеристики диапазона извлечения и сообщения об ошибках
Выбранный диапазон
Имя файла D:\MUSIC_[+]\!!FLAC\The London Symphony Orchestra - The Best of Classic Rock\The London Symphony Orchestra - The Best of Classic Rock.wav
Пиковый уровень 100.0 % Качество диапазона 100.0 % CRC теста F706FAD0 CRC копии F706FAD0 Копирование... OK
Ошибок не произошло
Конец отчёта



Показать сообщения:    

Текущее время: 18-Янв 00:24

Часовой пояс: UTC + 3


Вы не можете начинать темы
Вы не можете отвечать на сообщения
Вы не можете редактировать свои сообщения
Вы не можете удалять свои сообщения
Вы не можете голосовать в опросах
Вы не можете прикреплять файлы к сообщениям
Вы не можете скачивать файлы