(Neo Classical) Rondo Veneziano : L'odyssee de Venise (1984) / Casanova (1985 ) / Concerto (1988) , FLAC (tracks+.cue), lossless


 

[Цитировать]

Rondo Veneziano : L'odyssee de Venise(1984) / Casanova(1985) / Concerto(1988)
Жанр: Neo Classical
Аудио кодек: FLAC
Тип рипа: tracks+.cue
Битрейт аудио: lossless
.
.
.
.
.
.
.

Трэклист и прочее :

L'odyssee de Venise (00:47:37) : Polydor(W.Germany)-827 669 2-(CD Relise - 1984)


Трэклист
:
01. Odissea Veneziana (2:37)
02. Tiziano (11:30)
03. Campo dei mori (2:47)
04. Prime luci sulla laguna (3:09)
05. L'anello (3:43)
06. Ca' d'oro (6:06)
07. Cecilia (3:16)
08. Mosaico (4:26)
09. Rosso veneziano (3:05)
10. Fantasia veneziana (3:39)
11. Invito alla danza (3:18)

Лог EAC

Exact Audio Copy V0.99 prebeta 5 from 4. May 2009
Отчёт EAC об извлечении, выполненном 21. апреля 2010, 16:57
Rondт Veneziano / L'odyssйe de Venise
Дисковод: SONY DVD RW DRX-S70U Adapter: 2 ID: 0
Режим чтения : Достоверность
Использование точного потока : Да
Отключение кэша аудио : Да
Использование указателей C2 : Нет
Коррекция смещения при чтении : 48
Способность читать области Lead-in и Lead-out : Нет
Заполнение пропущенных сэмплов тишиной : Да
Удаление блоков с тишиной в начале и конце : Нет
При вычислениях CRC использовались нулевые сэмплы : Да
Интерфейс : Встроенный Win32-интерфейс для Win NT/2000
Обработка зазоров : Добавлено к предыдущему треку
Выходной формат : Пользовательский кодировщик
Выбранный битрейт : 768 kBit/s
Качество : Высокий
Добавление ID3-тэга : Да
Утилита сжатия : D:\Program Files\Exact Audio Copy\Flac\flac.exe
Дополнительные параметры : -6 -V -T "ARTIST=%a" -T "TITLE=%t" -T "ALBUM=%g" -T "DATE=%y" -T "TRACKNUMBER=%n" -T "GENRE=%m" -T "COMMENT=%e" %s -o %d
TOC извлечённого CD
Трек | Старт | Длительность | Начальный сектор | Конечный сектор
---------------------------------------------------------------------
1 | 0:00.32 | 2:37.30 | 32 | 11836
2 | 2:37.62 | 11:30.30 | 11837 | 63616
3 | 14:08.17 | 2:46.58 | 63617 | 76124
4 | 16:55.00 | 3:09.00 | 76125 | 90299
5 | 20:04.00 | 3:43.20 | 90300 | 107044
6 | 23:47.20 | 6:06.05 | 107045 | 134499
7 | 29:53.25 | 3:16.25 | 134500 | 149224
8 | 33:09.50 | 4:25.60 | 149225 | 169159
9 | 37:35.35 | 3:05.12 | 169160 | 183046
10 | 40:40.47 | 3:39.15 | 183047 | 199486
11 | 44:19.62 | 3:17.63 | 199487 | 214324
Трек 1
Имя файла D:\My Documents\Rondo Veneziano\L`odyssee De Venise\[01]Odissea Veneziana-Rondт Veneziano.wav
Длина предзазора 0:00:02.42
Пиковый уровень 99.0 %
Качество трека 99.9 %
CRC теста 78DB6B34
CRC копии 78DB6B34
Копирование... OK
Трек 2
Имя файла D:\My Documents\Rondo Veneziano\L`odyssee De Venise\[02]Tiziano-Rondт Veneziano.wav
Длина предзазора 0:00:00.06
Пиковый уровень 87.3 %
Качество трека 100.0 %
CRC теста 910E210A
CRC копии 910E210A
Копирование... OK
Трек 3
Имя файла D:\My Documents\Rondo Veneziano\L`odyssee De Venise\[03]Campo dei mori-Rondт Veneziano.wav
Пиковый уровень 99.0 %
Качество трека 100.0 %
CRC теста 26ECA09A
CRC копии 26ECA09A
Копирование... OK
Трек 4
Имя файла D:\My Documents\Rondo Veneziano\L`odyssee De Venise\[04]Prime luci sulla laguna-Rondт Veneziano.wav
Пиковый уровень 100.0 %
Качество трека 100.0 %
CRC теста 8F308B70
CRC копии 8F308B70
Копирование... OK
Трек 5
Имя файла D:\My Documents\Rondo Veneziano\L`odyssee De Venise\[05]L'anello-Rondт Veneziano.wav
Пиковый уровень 100.0 %
Качество трека 100.0 %
CRC теста D23137E2
CRC копии D23137E2
Копирование... OK
Трек 6
Имя файла D:\My Documents\Rondo Veneziano\L`odyssee De Venise\[06]Ca' d'oro-Rondт Veneziano.wav
Пиковый уровень 94.2 %
Качество трека 100.0 %
CRC теста 1E6D6616
CRC копии 1E6D6616
Копирование... OK
Трек 7
Имя файла D:\My Documents\Rondo Veneziano\L`odyssee De Venise\[07]Cecilia-Rondт Veneziano.wav
Пиковый уровень 100.0 %
Качество трека 100.0 %
CRC теста 22D72DF2
CRC копии 22D72DF2
Копирование... OK
Трек 8
Имя файла D:\My Documents\Rondo Veneziano\L`odyssee De Venise\[08]Mosaico-Rondт Veneziano.wav
Пиковый уровень 73.4 %
Качество трека 100.0 %
CRC теста D7CADB06
CRC копии D7CADB06
Копирование... OK
Трек 9
Имя файла D:\My Documents\Rondo Veneziano\L`odyssee De Venise\[09]Rosso veneziano-Rondт Veneziano.wav
Пиковый уровень 77.4 %
Качество трека 100.0 %
CRC теста 17A4CD51
CRC копии 17A4CD51
Копирование... OK
Трек 10
Имя файла D:\My Documents\Rondo Veneziano\L`odyssee De Venise\[10]Fantasia veneziana-Rondт Veneziano.wav
Пиковый уровень 85.8 %
Качество трека 100.0 %
CRC теста 6E0FF904
CRC копии 6E0FF904
Копирование... OK
Трек 11
Имя файла D:\My Documents\Rondo Veneziano\L`odyssee De Venise\[11]Invito alla danza-Rondт Veneziano.wav
Пиковый уровень 85.6 %
Качество трека 100.0 %
CRC теста 47E48C74
CRC копии 47E48C74
Копирование... OK
Ошибок не произошло
Конец отчёта

Лог Audiochecker

AUDIOCHECKER v2.0 beta (build 457) - by Dester - opdester@freemail.hu
~~~~~~~~~~~~~~~~~~~~~~~~~~~~~~~~~~
-=== DO NOT EDIT THIS FILE! ===-
Путь: ...\L`odyssee De Venise
01 -=- [01]Odissea Veneziana-Rondт Veneziano.flac -=- CDDA (100%)
02 -=- [02]Tiziano-Rondт Veneziano.flac -=- CDDA (100%)
03 -=- [03]Campo dei mori-Rondт Veneziano.flac -=- ERROR
04 -=- [04]Prime luci sulla laguna-Rondт Veneziano.flac -=- CDDA (100%)
05 -=- [05]L'anello-Rondт Veneziano.flac -=- CDDA (100%)
06 -=- [06]Ca' d'oro-Rondт Veneziano.flac -=- CDDA (100%)
07 -=- [07]Cecilia-Rondт Veneziano.flac -=- CDDA (100%)
08 -=- [08]Mosaico-Rondт Veneziano.flac -=- CDDA (100%)
09 -=- [09]Rosso veneziano-Rondт Veneziano.flac -=- CDDA (100%)
10 -=- [10]Fantasia veneziana-Rondт Veneziano.flac -=- CDDA (100%)
11 -=- [11]Invito alla danza-Rondт Veneziano.flac -=- CDDA (100%)
Сводка 100,00% CDDA
113959812

*CUE

REM GENRE Classical
REM DATE 1984
REM DISCID 950B290B
REM COMMENT "ExactAudioCopy v0.99pb5"
PERFORMER "Rondт Veneziano"
TITLE "L'odyssйe de Venise"
FILE "[01]Odissea Veneziana-Rondт Veneziano.wav" WAVE
TRACK 01 AUDIO
TITLE "Odissea Veneziana"
PERFORMER "Rondт Veneziano"
FLAGS PRE
PREGAP 00:00:32
INDEX 01 00:00:00
TRACK 02 AUDIO
TITLE "Tiziano"
PERFORMER "Rondт Veneziano"
FLAGS PRE
INDEX 00 02:37:25
FILE "[02]Tiziano-Rondт Veneziano.wav" WAVE
INDEX 01 00:00:00
FILE "[03]Campo dei mori-Rondт Veneziano.wav" WAVE
TRACK 03 AUDIO
TITLE "Campo dei mori"
PERFORMER "Rondт Veneziano"
FLAGS PRE
INDEX 01 00:00:00
FILE "[04]Prime luci sulla laguna-Rondт Veneziano.wav" WAVE
TRACK 04 AUDIO
TITLE "Prime luci sulla laguna"
PERFORMER "Rondт Veneziano"
INDEX 01 00:00:00
FILE "[05]L'anello-Rondт Veneziano.wav" WAVE
TRACK 05 AUDIO
TITLE "L'anello"
PERFORMER "Rondт Veneziano"
FLAGS PRE
INDEX 01 00:00:00
FILE "[06]Ca' d'oro-Rondт Veneziano.wav" WAVE
TRACK 06 AUDIO
TITLE "Ca' d'oro"
PERFORMER "Rondт Veneziano"
FLAGS PRE
INDEX 01 00:00:00
FILE "[07]Cecilia-Rondт Veneziano.wav" WAVE
TRACK 07 AUDIO
TITLE "Cecilia"
PERFORMER "Rondт Veneziano"
FLAGS PRE
INDEX 01 00:00:00
FILE "[08]Mosaico-Rondт Veneziano.wav" WAVE
TRACK 08 AUDIO
TITLE "Mosaico"
PERFORMER "Rondт Veneziano"
FLAGS PRE
INDEX 01 00:00:00
FILE "[09]Rosso veneziano-Rondт Veneziano.wav" WAVE
TRACK 09 AUDIO
TITLE "Rosso veneziano"
PERFORMER "Rondт Veneziano"
FLAGS PRE
INDEX 01 00:00:00
FILE "[10]Fantasia veneziana-Rondт Veneziano.wav" WAVE
TRACK 10 AUDIO
TITLE "Fantasia veneziana"
PERFORMER "Rondт Veneziano"
FLAGS PRE
INDEX 01 00:00:00
FILE "[11]Invito alla danza-Rondт Veneziano.wav" WAVE
TRACK 11 AUDIO
TITLE "Invito alla danza"
PERFORMER "Rondт Veneziano"
FLAGS PRE
INDEX 01 00:00:00

Casanova (00:40:08) : Baby Records(Italy)-590 081 2-(CD Relise - 199?)


Трэклист
:
01. Casanova (3:10)
02. Donna Lucrezia (3:02)
03. Nuovi Orizzonti (3:16)
04. Nostalgia di Venezia (2:32)
05. Rosaura (2:40)
06. Giardino Incantato (5:16)
07. Sogno Veneziano (3:18)
08. Bettina (3:11)
09. Preludio All'Amore (3:01)
10. L'orientale (3:43)
11. Interludio (3:45)
12. Cecilia (3:16)

Лог EAC

Exact Audio Copy V0.99 prebeta 5 from 4. May 2009
Отчёт EAC об извлечении, выполненном 23. апреля 2010, 13:18
Rondo Veneziano / Casanova
Дисковод: SONY DVD RW DRX-S70U Adapter: 2 ID: 0
Режим чтения : Достоверность
Использование точного потока : Да
Отключение кэша аудио : Да
Использование указателей C2 : Нет
Коррекция смещения при чтении : 48
Способность читать области Lead-in и Lead-out : Нет
Заполнение пропущенных сэмплов тишиной : Да
Удаление блоков с тишиной в начале и конце : Нет
При вычислениях CRC использовались нулевые сэмплы : Да
Интерфейс : Встроенный Win32-интерфейс для Win NT/2000
Обработка зазоров : Добавлено к предыдущему треку
Выходной формат : Пользовательский кодировщик
Выбранный битрейт : 768 kBit/s
Качество : Высокий
Добавление ID3-тэга : Да
Утилита сжатия : H:\Program Files\Exact Audio Copy\Flac\flac.exe
Дополнительные параметры : -6 -V -T "ARTIST=%a" -T "TITLE=%t" -T "ALBUM=%g" -T "DATE=%y" -T "TRACKNUMBER=%n" -T "GENRE=%m" -T "COMMENT=%e" %s -o %d
TOC извлечённого CD
Трек | Старт | Длительность | Начальный сектор | Конечный сектор
---------------------------------------------------------------------
1 | 0:00.33 | 3:09.50 | 33 | 14257
2 | 3:10.08 | 3:02.12 | 14258 | 27919
3 | 6:12.20 | 3:16.00 | 27920 | 42619
4 | 9:28.20 | 2:31.38 | 42620 | 53982
5 | 11:59.58 | 2:39.62 | 53983 | 65969
6 | 14:39.45 | 5:15.38 | 65970 | 89632
7 | 19:55.08 | 3:17.62 | 89633 | 104469
8 | 23:12.70 | 3:11.13 | 104470 | 118807
9 | 26:24.08 | 3:00.50 | 118808 | 132357
10 | 29:24.58 | 3:42.62 | 132358 | 149069
11 | 33:07.45 | 3:44.50 | 149070 | 165919
12 | 36:52.20 | 3:16.13 | 165920 | 180632
Трек 1
Имя файла D:\My Documents\Rondo Veneziano\Casanova\[01]Casanova-Rondo Veneziano.wav
Длина предзазора 0:00:02.44
Пиковый уровень 90.4 %
Качество трека 100.0 %
CRC теста 2CED7E1E
CRC копии 2CED7E1E
Копирование... OK
Трек 2
Имя файла D:\My Documents\Rondo Veneziano\Casanova\[02]Donna Lucrezia-Rondo Veneziano.wav
Длина предзазора 0:00:02.00
Пиковый уровень 51.1 %
Качество трека 100.0 %
CRC теста B71B1933
CRC копии B71B1933
Копирование... OK
Трек 3
Имя файла D:\My Documents\Rondo Veneziano\Casanova\[03]Nuovi Orizzonti-Rondo Veneziano.wav
Длина предзазора 0:00:02.00
Пиковый уровень 66.3 %
Качество трека 100.0 %
CRC теста B2860A50
CRC копии B2860A50
Копирование... OK
Трек 4
Имя файла D:\My Documents\Rondo Veneziano\Casanova\[04]Nostalgia di Venezia-Rondo Veneziano.wav
Длина предзазора 0:00:02.00
Пиковый уровень 71.6 %
Качество трека 100.0 %
CRC теста E6BA0586
CRC копии E6BA0586
Копирование... OK
Трек 5
Имя файла D:\My Documents\Rondo Veneziano\Casanova\[05]Rosaura-Rondo Veneziano.wav
Длина предзазора 0:00:02.00
Пиковый уровень 76.0 %
Качество трека 100.0 %
CRC теста 04144627
CRC копии 04144627
Копирование... OK
Трек 6
Имя файла D:\My Documents\Rondo Veneziano\Casanova\[06]Giardino Incantato-Rondo Veneziano.wav
Длина предзазора 0:00:02.00
Пиковый уровень 51.0 %
Качество трека 100.0 %
CRC теста 6DF5C4ED
CRC копии 6DF5C4ED
Копирование... OK
Трек 7
Имя файла D:\My Documents\Rondo Veneziano\Casanova\[07]Sogno Veneziano-Rondo Veneziano.wav
Длина предзазора 0:00:02.00
Пиковый уровень 71.9 %
Качество трека 100.0 %
CRC теста 9E537DB1
CRC копии 9E537DB1
Копирование... OK
Трек 8
Имя файла D:\My Documents\Rondo Veneziano\Casanova\[08]Bettina-Rondo Veneziano.wav
Длина предзазора 0:00:02.00
Пиковый уровень 89.6 %
Качество трека 100.0 %
CRC теста 09B8C1CD
CRC копии 09B8C1CD
Копирование... OK
Трек 9
Имя файла D:\My Documents\Rondo Veneziano\Casanova\[09]Preludio All'Amore-Rondo Veneziano.wav
Длина предзазора 0:00:02.00
Пиковый уровень 77.1 %
Качество трека 99.9 %
CRC теста C24F820C
CRC копии C24F820C
Копирование... OK
Трек 10
Имя файла D:\My Documents\Rondo Veneziano\Casanova\[10]L'orientale-Rondo Veneziano.wav
Длина предзазора 0:00:02.00
Пиковый уровень 89.0 %
Качество трека 99.9 %
CRC теста BBC3998F
CRC копии BBC3998F
Копирование... OK
Трек 11
Имя файла D:\My Documents\Rondo Veneziano\Casanova\[11]Interludio-Rondo Veneziano.wav
Длина предзазора 0:00:02.00
Пиковый уровень 83.7 %
Качество трека 100.0 %
CRC теста 1F8EF9F5
CRC копии 1F8EF9F5
Копирование... OK
Трек 12
Имя файла D:\My Documents\Rondo Veneziano\Casanova\[12]Cecilia-Rondo Veneziano.wav
Длина предзазора 0:00:02.00
Пиковый уровень 73.8 %
Качество трека 100.0 %
CRC теста 0C84D308
CRC копии 0C84D308
Копирование... OK
Ошибок не произошло
Конец отчёта

Лог Audiochecker

AUDIOCHECKER v2.0 beta (build 457) - by Dester - opdester@freemail.hu
~~~~~~~~~~~~~~~~~~~~~~~~~~~~~~~~~~
-=== DO NOT EDIT THIS FILE! ===-
Путь: ...\Casanova
01 -=- [01]Casanova-Rondo Veneziano.flac -=- CDDA (100%)
02 -=- [02]Donna Lucrezia-Rondo Veneziano.flac -=- CDDA (99%)
03 -=- [03]Nuovi Orizzonti-Rondo Veneziano.flac -=- CDDA (100%)
04 -=- [04]Nostalgia di Venezia-Rondo Veneziano.flac -=- CDDA (100%)
05 -=- [05]Rosaura-Rondo Veneziano.flac -=- CDDA (100%)
06 -=- [06]Giardino Incantato-Rondo Veneziano.flac -=- CDDA (99%)
07 -=- [07]Sogno Veneziano-Rondo Veneziano.flac -=- CDDA (100%)
08 -=- [08]Bettina-Rondo Veneziano.flac -=- CDDA (99%)
09 -=- [09]Preludio All'Amore-Rondo Veneziano.flac -=- CDDA (100%)
10 -=- [10]L'orientale-Rondo Veneziano.flac -=- CDDA (100%)
11 -=- [11]Interludio-Rondo Veneziano.flac -=- MPEG (79%)
12 -=- [12]Cecilia-Rondo Veneziano.flac -=- CDDA (99%)
Сводка 93,08% CDDA
63114468

*CUE

REM GENRE Classical
REM DATE 1985
REM DISCID B209680C
REM COMMENT "ExactAudioCopy v0.99pb5"
PERFORMER "Rondo Veneziano"
TITLE "Casanova"
FILE "[01]Casanova-Rondo Veneziano.wav" WAVE
TRACK 01 AUDIO
TITLE "Casanova"
PERFORMER "Rondo Veneziano"
PREGAP 00:00:33
INDEX 01 00:00:00
TRACK 02 AUDIO
TITLE "Donna Lucrezia"
PERFORMER "Rondo Veneziano"
INDEX 00 03:07:50
FILE "[02]Donna Lucrezia-Rondo Veneziano.wav" WAVE
INDEX 01 00:00:00
TRACK 03 AUDIO
TITLE "Nuovi Orizzonti"
PERFORMER "Rondo Veneziano"
INDEX 00 03:00:12
FILE "[03]Nuovi Orizzonti-Rondo Veneziano.wav" WAVE
INDEX 01 00:00:00
TRACK 04 AUDIO
TITLE "Nostalgia di Venezia"
PERFORMER "Rondo Veneziano"
INDEX 00 03:14:00
FILE "[04]Nostalgia di Venezia-Rondo Veneziano.wav" WAVE
INDEX 01 00:00:00
TRACK 05 AUDIO
TITLE "Rosaura"
PERFORMER "Rondo Veneziano"
INDEX 00 02:29:38
FILE "[05]Rosaura-Rondo Veneziano.wav" WAVE
INDEX 01 00:00:00
TRACK 06 AUDIO
TITLE "Giardino Incantato"
PERFORMER "Rondo Veneziano"
INDEX 00 02:37:62
FILE "[06]Giardino Incantato-Rondo Veneziano.wav" WAVE
INDEX 01 00:00:00
TRACK 07 AUDIO
TITLE "Sogno Veneziano"
PERFORMER "Rondo Veneziano"
INDEX 00 05:13:38
FILE "[07]Sogno Veneziano-Rondo Veneziano.wav" WAVE
INDEX 01 00:00:00
TRACK 08 AUDIO
TITLE "Bettina"
PERFORMER "Rondo Veneziano"
INDEX 00 03:15:62
FILE "[08]Bettina-Rondo Veneziano.wav" WAVE
INDEX 01 00:00:00
TRACK 09 AUDIO
TITLE "Preludio All'Amore"
PERFORMER "Rondo Veneziano"
INDEX 00 03:09:13
FILE "[09]Preludio All'Amore-Rondo Veneziano.wav" WAVE
INDEX 01 00:00:00
TRACK 10 AUDIO
TITLE "L'orientale"
PERFORMER "Rondo Veneziano"
INDEX 00 02:58:50
FILE "[10]L'orientale-Rondo Veneziano.wav" WAVE
INDEX 01 00:00:00
TRACK 11 AUDIO
TITLE "Interludio"
PERFORMER "Rondo Veneziano"
INDEX 00 03:40:62
FILE "[11]Interludio-Rondo Veneziano.wav" WAVE
INDEX 01 00:00:00
TRACK 12 AUDIO
TITLE "Cecilia"
PERFORMER "Rondo Veneziano"
INDEX 00 03:42:50
FILE "[12]Cecilia-Rondo Veneziano.wav" WAVE
INDEX 01 00:00:00

Concerto (00:35:45) : Baby Records(Italy)-590 119 2-(CD Relise - 199?)


Трэклист
:
01. Concerto (3:56)
02. Seduzione (2:35)
03. Sonetto (2:34)
04. Splendore di Venezia (2:39)
05. Miniature (3:05)
06. Controdanze (3:03)
07. Tema Veneziano (2:53)
08. Nuvole (2:27)
09. Carrousel (3:34)
10. Tramonto D'Autunno (3:46)
11. Chimere (3:11)
12. Perla del Mare (2:01)

Лог EAC

Exact Audio Copy V0.99 prebeta 5 from 4. May 2009
Отчёт EAC об извлечении, выполненном 21. апреля 2010, 18:21
Rondo Veneziano / Concerto
Дисковод: SONY DVD RW DRX-S70U Adapter: 2 ID: 0
Режим чтения : Достоверность
Использование точного потока : Да
Отключение кэша аудио : Да
Использование указателей C2 : Нет
Коррекция смещения при чтении : 48
Способность читать области Lead-in и Lead-out : Нет
Заполнение пропущенных сэмплов тишиной : Да
Удаление блоков с тишиной в начале и конце : Нет
При вычислениях CRC использовались нулевые сэмплы : Да
Интерфейс : Встроенный Win32-интерфейс для Win NT/2000
Обработка зазоров : Добавлено к предыдущему треку
Выходной формат : Пользовательский кодировщик
Выбранный битрейт : 768 kBit/s
Качество : Высокий
Добавление ID3-тэга : Да
Утилита сжатия : D:\Program Files\Exact Audio Copy\Flac\flac.exe
Дополнительные параметры : -6 -V -T "ARTIST=%a" -T "TITLE=%t" -T "ALBUM=%g" -T "DATE=%y" -T "TRACKNUMBER=%n" -T "GENRE=%m" -T "COMMENT=%e" %s -o %d
TOC извлечённого CD
Трек | Старт | Длительность | Начальный сектор | Конечный сектор
---------------------------------------------------------------------
1 | 0:00.32 | 3:56.00 | 32 | 17731
2 | 3:56.32 | 2:34.53 | 17732 | 29334
3 | 6:31.10 | 2:33.72 | 29335 | 40881
4 | 9:05.07 | 2:39.25 | 40882 | 52831
5 | 11:44.32 | 3:05.23 | 52832 | 66729
6 | 14:49.55 | 3:03.30 | 66730 | 80484
7 | 17:53.10 | 2:53.25 | 80485 | 93484
8 | 20:46.35 | 2:26.65 | 93485 | 104499
9 | 23:13.25 | 3:33.60 | 104500 | 120534
10 | 26:47.10 | 3:46.27 | 120535 | 137511
11 | 30:33.37 | 3:11.35 | 137512 | 151871
12 | 33:44.72 | 2:00.53 | 151872 | 160924
Трек 1
Имя файла D:\My Documents\Rondo Veneziano\Concerto\[01]Concerto-Rondo Veneziano.wav
Длина предзазора 0:00:02.42
Пиковый уровень 75.9 %
Качество трека 100.0 %
CRC теста C99FD338
CRC копии C99FD338
Копирование... OK
Трек 2
Имя файла D:\My Documents\Rondo Veneziano\Concerto\[02]Seduzione-Rondo Veneziano.wav
Длина предзазора 0:00:00.49
Пиковый уровень 100.0 %
Качество трека 99.9 %
CRC теста 4A539269
CRC копии 4A539269
Копирование... OK
Трек 3
Имя файла D:\My Documents\Rondo Veneziano\Concerto\[03]Sonetto-Rondo Veneziano.wav
Длина предзазора 0:00:01.26
Пиковый уровень 59.4 %
Качество трека 100.0 %
CRC теста 086DDA44
CRC копии 086DDA44
Копирование... OK
Трек 4
Имя файла D:\My Documents\Rondo Veneziano\Concerto\[04]Splendore di Venezia-Rondo Veneziano.wav
Длина предзазора 0:00:01.13
Пиковый уровень 76.2 %
Качество трека 100.0 %
CRC теста AEF142B1
CRC копии AEF142B1
Копирование... OK
Трек 5
Имя файла D:\My Documents\Rondo Veneziano\Concerto\[05]Miniature-Rondo Veneziano.wav
Длина предзазора 0:00:01.53
Пиковый уровень 63.1 %
Качество трека 99.9 %
CRC теста 7785404C
CRC копии 7785404C
Копирование... OK
Трек 6
Имя файла D:\My Documents\Rondo Veneziano\Concerto\[06]Controdanze-Rondo Veneziano.wav
Длина предзазора 0:00:00.80
Пиковый уровень 72.9 %
Качество трека 100.0 %
CRC теста D638A807
CRC копии D638A807
Копирование... OK
Трек 7
Имя файла D:\My Documents\Rondo Veneziano\Concerto\[07]Tema Veneziano-Rondo Veneziano.wav
Длина предзазора 0:00:02.77
Пиковый уровень 100.0 %
Качество трека 99.9 %
CRC теста F00B3FEF
CRC копии F00B3FEF
Копирование... OK
Трек 8
Имя файла D:\My Documents\Rondo Veneziano\Concerto\[08]Nuvole-Rondo Veneziano.wav
Длина предзазора 0:00:01.04
Пиковый уровень 85.1 %
Качество трека 100.0 %
CRC теста 5BFE2E08
CRC копии 5BFE2E08
Копирование... OK
Трек 9
Имя файла D:\My Documents\Rondo Veneziano\Concerto\[09]Carrousel-Rondo Veneziano.wav
Длина предзазора 0:00:00.04
Пиковый уровень 83.6 %
Качество трека 100.0 %
CRC теста 390C4A82
CRC копии 390C4A82
Копирование... OK
Трек 10
Имя файла D:\My Documents\Rondo Veneziano\Concerto\[10]Tramonto D'Autunno-Rondo Veneziano.wav
Длина предзазора 0:00:01.17
Пиковый уровень 66.5 %
Качество трека 100.0 %
CRC теста EB05A5CC
CRC копии EB05A5CC
Копирование... OK
Трек 11
Имя файла D:\My Documents\Rondo Veneziano\Concerto\[11]Chimere-Rondo Veneziano.wav
Длина предзазора 0:00:01.06
Пиковый уровень 97.8 %
Качество трека 100.0 %
CRC теста A52D232D
CRC копии A52D232D
Копирование... OK
Трек 12
Имя файла D:\My Documents\Rondo Veneziano\Concerto\[12]Perla del Mare-Rondo Veneziano.wav
Длина предзазора 0:00:01.49
Пиковый уровень 40.1 %
Качество трека 100.0 %
CRC теста 91F07630
CRC копии 91F07630
Копирование... OK
Ошибок не произошло
Конец отчёта

Лог Audiochecker

AUDIOCHECKER v2.0 beta (build 457) - by Dester - opdester@freemail.hu
~~~~~~~~~~~~~~~~~~~~~~~~~~~~~~~~~~
-=== НЕ РЕДАКТИРУЙТЕ ЭТОТ ФАЙЛ! ===-
Путь: ...\Concerto
01 -=- [01]Concerto-Rondo Veneziano.flac -=- CDDA (85%)
02 -=- [02]Seduzione-Rondo Veneziano.flac -=- CDDA (100%)
03 -=- [03]Sonetto-Rondo Veneziano.flac -=- CDDA (100%)
04 -=- [04]Splendore di Venezia-Rondo Veneziano.flac -=- CDDA (100%)
05 -=- [05]Miniature-Rondo Veneziano.flac -=- CDDA (87%)
06 -=- [06]Controdanze-Rondo Veneziano.flac -=- ERROR
07 -=- [07]Tema Veneziano-Rondo Veneziano.flac -=- CDDA (100%)
08 -=- [08]Nuvole-Rondo Veneziano.flac -=- CDDA (94%)
09 -=- [09]Carrousel-Rondo Veneziano.flac -=- CDDA (100%)
10 -=- [10]Tramonto D'Autunno-Rondo Veneziano.flac -=- CDDA (76%)
11 -=- [11]Chimere-Rondo Veneziano.flac -=- CDDA (100%)
12 -=- [12]Perla del Mare-Rondo Veneziano.flac -=- CDDA (76%)
Сводка 92,55% CDDA
155244820

*CUE

REM GENRE "Classic Rock"
REM DATE 1988
REM DISCID A608610C
REM COMMENT "ExactAudioCopy v0.99pb5"
PERFORMER "Rondo Veneziano"
TITLE "Concerto"
FILE "[01]Concerto-Rondo Veneziano.wav" WAVE
TRACK 01 AUDIO
TITLE "Concerto"
PERFORMER "Rondo Veneziano"
PREGAP 00:00:32
INDEX 01 00:00:00
TRACK 02 AUDIO
TITLE "Seduzione"
PERFORMER "Rondo Veneziano"
INDEX 00 03:55:38
FILE "[02]Seduzione-Rondo Veneziano.wav" WAVE
INDEX 01 00:00:00
TRACK 03 AUDIO
TITLE "Sonetto"
PERFORMER "Rondo Veneziano"
INDEX 00 02:33:33
FILE "[03]Sonetto-Rondo Veneziano.wav" WAVE
INDEX 01 00:00:00
TRACK 04 AUDIO
TITLE "Splendore di Venezia"
PERFORMER "Rondo Veneziano"
INDEX 00 02:32:62
FILE "[04]Splendore di Venezia-Rondo Veneziano.wav" WAVE
INDEX 01 00:00:00
TRACK 05 AUDIO
TITLE "Miniature"
PERFORMER "Rondo Veneziano"
INDEX 00 02:37:60
FILE "[05]Miniature-Rondo Veneziano.wav" WAVE
INDEX 01 00:00:00
TRACK 06 AUDIO
TITLE "Controdanze"
PERFORMER "Rondo Veneziano"
INDEX 00 03:04:38
FILE "[06]Controdanze-Rondo Veneziano.wav" WAVE
INDEX 01 00:00:00
TRACK 07 AUDIO
TITLE "Tema Veneziano"
PERFORMER "Rondo Veneziano"
INDEX 00 03:00:47
FILE "[07]Tema Veneziano-Rondo Veneziano.wav" WAVE
INDEX 01 00:00:00
TRACK 08 AUDIO
TITLE "Nuvole"
PERFORMER "Rondo Veneziano"
INDEX 00 02:52:22
FILE "[08]Nuvole-Rondo Veneziano.wav" WAVE
INDEX 01 00:00:00
TRACK 09 AUDIO
TITLE "Carrousel"
PERFORMER "Rondo Veneziano"
INDEX 00 02:26:62
FILE "[09]Carrousel-Rondo Veneziano.wav" WAVE
INDEX 01 00:00:00
TRACK 10 AUDIO
TITLE "Tramonto D'Autunno"
PERFORMER "Rondo Veneziano"
INDEX 00 03:32:47
FILE "[10]Tramonto D'Autunno-Rondo Veneziano.wav" WAVE
INDEX 01 00:00:00
TRACK 11 AUDIO
TITLE "Chimere"
PERFORMER "Rondo Veneziano"
INDEX 00 03:45:22
FILE "[11]Chimere-Rondo Veneziano.wav" WAVE
INDEX 01 00:00:00
TRACK 12 AUDIO
TITLE "Perla del Mare"
PERFORMER "Rondo Veneziano"
INDEX 00 03:09:73
FILE "[12]Perla del Mare-Rondo Veneziano.wav" WAVE
INDEX 01 00:00:00
рипы мои с оригинальных cd из моей коллекции .



Показать сообщения:    

Текущее время: 03-Дек 03:23

Часовой пояс: UTC + 3


Вы не можете начинать темы
Вы не можете отвечать на сообщения
Вы не можете редактировать свои сообщения
Вы не можете удалять свои сообщения
Вы не можете голосовать в опросах
Вы не можете прикреплять файлы к сообщениям
Вы не можете скачивать файлы