(Classical/Instrumental/Rock) Lubomir Brabec & Karel Vagner - Transformations (cd1-2) - 1990, FLAC (image+.cue), lossless


 

[Цитировать]

Lubomir Brabec & Karel Vagner - Transformations (cd1-2)
Жанр: Classical/Instrumental/Rock
Год выпуска диска: 1987, 1990
Производитель диска: Чехословакия
Аудио кодек: FLAC
Тип рипа: image+.cue
Битрейт аудио: lossless
Продолжительность: 01:45:15
Трэклист:
cd1
1. Cavaltina (Mayers) (3:25)
2. Prelude (Bach) (3:53)
3. Fool On The Hill (Lennon/McCartney) (2:50)
4. Gymnopedie (Satie) (3:35)
5. Danza Ritual del Fuego (Falla) (3:58)
6. Romance (Anonymus) (2:53)
7. Don't Go (Vagner) (3:02)
8. Toccata (Bach) (4:41)
9. Canon (Pachelbel) (4:05)
10. Prelude (Prokofiev) (3:54)
11. L'Inverno (Vivaldi) (4:25)
12. Largo (Bach) (2:53)
13. Farewell (Parma) (3:03)
cd2
1. New Hampshire Horn Pipe (2:22)
2. Don't Cry For Me Argentina (3:22)
3. Italian Concerto (3:49)
4. Adagio (Albinoni) (4:23)
5. Rain Season (4:11)
6. Adagio (Bach) (3:40)
7. Wachet Auf (4:14)
8. Toad (3:09)
9. Montagues and Capulets (4:55)
10. In Tears (4:01)
11. Baba Yaga's Hut (3:30)
12. La Fille Aux Cheveux De Lin (2:57)
13. She's Not Waiting Anymore (3:02)
14. Nobody Will Please Me (3:22)
15. Fantasia (3:48)
16. Largo (Chopin) (3:40)
Доп. информация: Инструментальные обработки классики и не только

tau analyzer cd1

tau analyzer cd2

log cd1

Exact Audio Copy V0.99 prebeta 5 from 4. May 2009
EAC extraction logfile from 11. May 2010, 12:19
Lubomir Brabec & Karel Vagner / Transformations cd1
Used drive : ASUS DRW-1608P3S Adapter: 3 ID: 0
Read mode : Secure
Utilize accurate stream : Yes
Defeat audio cache : Yes
Make use of C2 pointers : No
Read offset correction : 48
Overread into Lead-In and Lead-Out : No
Fill up missing offset samples with silence : Yes
Delete leading and trailing silent blocks : No
Null samples used in CRC calculations : Yes
Used interface : Native Win32 interface for Win NT & 2000
Used output format : User Defined Encoder
Selected bitrate : 1024 kBit/s
Quality : High
Add ID3 tag : No
Command line compressor : C:\Program Files\Exact Audio Copy\Flac\flac.exe
Additional command line options : -8 %s -V %s --delete-input-file
TOC of the extracted CD
Track | Start | Length | Start sector | End sector
---------------------------------------------------------
1 | 0:00.00 | 3:25.13 | 0 | 15387
2 | 3:25.13 | 3:53.60 | 15388 | 32922
3 | 7:18.73 | 2:50.65 | 32923 | 45737
4 | 10:09.63 | 3:35.63 | 45738 | 61925
5 | 13:45.51 | 3:58.63 | 61926 | 79838
6 | 17:44.39 | 2:53.42 | 79839 | 92855
7 | 20:38.06 | 3:02.64 | 92856 | 106569
8 | 23:40.70 | 4:41.07 | 106570 | 127651
9 | 28:22.02 | 4:05.05 | 127652 | 146031
10 | 32:27.07 | 3:54.16 | 146032 | 163597
11 | 36:21.23 | 4:25.24 | 163598 | 183496
12 | 40:46.47 | 2:53.36 | 183497 | 196507
13 | 43:40.08 | 3:03.23 | 196508 | 210255
Range status and errors
Selected range
Filename C:\Transformations cd1\Lubomir Brabec & Karel Vagner - Transformations cd1.wav
Peak level 96.9 %
Range quality 100.0 %
Copy CRC F0D7DCE8
Copy OK
No errors occurred
AccurateRip summary
Track 1 not present in database
Track 2 not present in database
Track 3 not present in database
Track 4 not present in database
Track 5 not present in database
Track 6 not present in database
Track 7 not present in database
Track 8 not present in database
Track 9 not present in database
Track 10 not present in database
Track 11 not present in database
Track 12 not present in database
Track 13 not present in database
None of the tracks are present in the AccurateRip database
End of status report

log cd2

Exact Audio Copy V0.99 prebeta 5 from 4. May 2009
EAC extraction logfile from 11. May 2010, 14:11
Lubomir Brabec & Karel Vagner / Transformations cd2
Used drive : ASUS DRW-1608P3S Adapter: 3 ID: 0
Read mode : Secure
Utilize accurate stream : Yes
Defeat audio cache : Yes
Make use of C2 pointers : No
Read offset correction : 48
Overread into Lead-In and Lead-Out : No
Fill up missing offset samples with silence : Yes
Delete leading and trailing silent blocks : No
Null samples used in CRC calculations : Yes
Used interface : Native Win32 interface for Win NT & 2000
Used output format : User Defined Encoder
Selected bitrate : 1024 kBit/s
Quality : High
Add ID3 tag : No
Command line compressor : C:\Program Files\Exact Audio Copy\Flac\flac.exe
Additional command line options : -8 %s -V %s --delete-input-file
TOC of the extracted CD
Track | Start | Length | Start sector | End sector
---------------------------------------------------------
1 | 0:00.00 | 2:22.21 | 0 | 10670
2 | 2:22.21 | 3:22.56 | 10671 | 25876
3 | 5:45.02 | 3:49.31 | 25877 | 43082
4 | 9:34.33 | 4:23.22 | 43083 | 62829
5 | 13:57.55 | 4:11.50 | 62830 | 81704
6 | 18:09.30 | 3:40.41 | 81705 | 98245
7 | 21:49.71 | 4:14.39 | 98246 | 117334
8 | 26:04.35 | 3:09.13 | 117335 | 131522
9 | 29:13.48 | 4:55.51 | 131523 | 153698
10 | 34:09.24 | 4:01.19 | 153699 | 171792
11 | 38:10.43 | 3:30.20 | 171793 | 187562
12 | 41:40.63 | 2:57.36 | 187563 | 200873
13 | 44:38.24 | 3:02.34 | 200874 | 214557
14 | 47:40.58 | 3:22.57 | 214558 | 229764
15 | 51:03.40 | 3:48.41 | 229765 | 246905
16 | 54:52.06 | 3:40.06 | 246906 | 263411
Range status and errors
Selected range
Filename C:\Transformations cd2\Lubomir Brabec & Karel Vagner - Transformations cd2.wav
Peak level 100.0 %
Range quality 100.0 %
Copy CRC 9EA85A94
Copy OK
No errors occurred
AccurateRip summary
Track 1 not present in database
Track 2 not present in database
Track 3 not present in database
Track 4 not present in database
Track 5 not present in database
Track 6 not present in database
Track 7 not present in database
Track 8 not present in database
Track 9 not present in database
Track 10 not present in database
Track 11 not present in database
Track 12 not present in database
Track 13 not present in database
Track 14 not present in database
Track 15 not present in database
Track 16 not present in database
None of the tracks are present in the AccurateRip database
End of status report

обложки

найденное в сети
cd

винил

архивом
http://rusfolder.com/35808120



Показать сообщения:    

Текущее время: 02-Дек 21:12

Часовой пояс: UTC + 3


Вы не можете начинать темы
Вы не можете отвечать на сообщения
Вы не можете редактировать свои сообщения
Вы не можете удалять свои сообщения
Вы не можете голосовать в опросах
Вы не можете прикреплять файлы к сообщениям
Вы не можете скачивать файлы