(Tribute, Instrumental, Classical) The String Quartet Tribute to Hinder - 2006, FLAC (tracks+.cue), lossless


 

[Цитировать]

The String Quartet Tribute to Hinder Жанр: Tribute, Instrumental, Classical
Год выпуска диска: 2006
Производитель диска: USA
Аудио кодек: FLAC
Тип рипа: tracks+.cue
Битрейт аудио: lossless
Источник: what.cd
Продолжительность: 00:40:50
Трэклист:
01 - Get Stoned
02 - How Long
03 - By The Way
04 - Nothin' Good About Goodbye
05 - Bliss (I Don't Wanna Know)
06 - Better Than Me
07 - Room 21
08 - Lips Of An Angel
09 - Homecoming Queen
10 - Shoulda
11 - Uninhibited (Original Composition Inspired by the Music of Hinder)

log

X Lossless Decoder version 20080926 (93.3)
XLD extraction logfile from 2008-10-13 21:51:16 -0400
The String Quartet Tribute / Uninhibited: The String Quartet Tribute to Hinder
Used drive : LITE-ON DVDRW LH-20A1L (revision BL02)
Use cdparanoia mode : YES (CDParanoia III 10.2 engine)Disable audio cache : OK for the drive with cache less than 2750KBMake use of C2 pointers : NORead offset correction : 6Max retry count : 20
TOC of the extracted CD Track | Start | Length | Start sector | End sector --------------------------------------------------------- 1 | 00:00:00 | 03:40:41 | 0 | 16540 2 | 03:40:41 | 03:25:66 | 16541 | 31981 3 | 07:06:32 | 03:50:51 | 31982 | 49282 4 | 10:57:08 | 03:32:63 | 49283 | 65245 5 | 14:29:71 | 03:50:12 | 65246 | 82507 6 | 18:20:08 | 03:44:48 | 82508 | 99355 7 | 22:04:56 | 03:38:12 | 99356 | 115717 8 | 25:42:68 | 04:21:21 | 115718 | 135313 9 | 30:04:14 | 04:34:65 | 135314 | 155928 10 | 34:39:04 | 03:11:25 | 155929 | 170278 11 | 37:50:29 | 03:00:04 | 170279 | 183782
Track 01 Filename : /Users/nkirk/Desktop/xldout/01 - Get Stoned.flac /Users/nkirk/Desktop/xldout/01 - Get Stoned.mp3 CRC32 hash (test run) : EA0F2BAA CRC32 hash : EA0F2BAA CRC32 hash (skip zero) : 5C2096F5 AccurateRip signature : 3042CC45 ->Track not present in AccurateRip database. Statistics Read error : 0 Skipped (treated as error) : 0 Edge jitter error (maybe fixed) : 0 Atom jitter error (maybe fixed) : 0 Drift error (maybe fixed) : 0 Dropped bytes error (maybe fixed) : 0 Duplicated bytes error (maybe fixed) : 0 Inconsistency in error sectors : 0
Track 02 Filename : /Users/nkirk/Desktop/xldout/02 - How Long.flac /Users/nkirk/Desktop/xldout/02 - How Long.mp3 CRC32 hash (test run) : 306BA230 CRC32 hash : 306BA230 CRC32 hash (skip zero) : 02DDE72E AccurateRip signature : 457FFD80 ->Track not present in AccurateRip database. Statistics Read error : 0 Skipped (treated as error) : 0 Edge jitter error (maybe fixed) : 0 Atom jitter error (maybe fixed) : 0 Drift error (maybe fixed) : 0 Dropped bytes error (maybe fixed) : 0 Duplicated bytes error (maybe fixed) : 0 Inconsistency in error sectors : 0
Track 03 Filename : /Users/nkirk/Desktop/xldout/03 - By The Way.flac /Users/nkirk/Desktop/xldout/03 - By The Way.mp3 CRC32 hash (test run) : F6D811A0 CRC32 hash : F6D811A0 CRC32 hash (skip zero) : 7FE8F39F AccurateRip signature : DFBF4246 ->Track not present in AccurateRip database. Statistics Read error : 0 Skipped (treated as error) : 0 Edge jitter error (maybe fixed) : 0 Atom jitter error (maybe fixed) : 0 Drift error (maybe fixed) : 0 Dropped bytes error (maybe fixed) : 0 Duplicated bytes error (maybe fixed) : 0 Inconsistency in error sectors : 0
Track 04 Filename : /Users/nkirk/Desktop/xldout/04 - Nothin' Good About Goodbye.flac /Users/nkirk/Desktop/xldout/04 - Nothin' Good About Goodbye.mp3 CRC32 hash (test run) : A5242338 CRC32 hash : A5242338 CRC32 hash (skip zero) : 23053709 AccurateRip signature : B9E16F86 ->Track not present in AccurateRip database. Statistics Read error : 0 Skipped (treated as error) : 0 Edge jitter error (maybe fixed) : 0 Atom jitter error (maybe fixed) : 0 Drift error (maybe fixed) : 0 Dropped bytes error (maybe fixed) : 0 Duplicated bytes error (maybe fixed) : 0 Inconsistency in error sectors : 0
Track 05 Filename : /Users/nkirk/Desktop/xldout/05 - Bliss (I Don't Wanna Know).flac /Users/nkirk/Desktop/xldout/05 - Bliss (I Don't Wanna Know).mp3 CRC32 hash (test run) : BA3C7BF8 CRC32 hash : BA3C7BF8 CRC32 hash (skip zero) : 22181BB4 AccurateRip signature : D5EF12E5 ->Track not present in AccurateRip database. Statistics Read error : 0 Skipped (treated as error) : 0 Edge jitter error (maybe fixed) : 0 Atom jitter error (maybe fixed) : 0 Drift error (maybe fixed) : 0 Dropped bytes error (maybe fixed) : 0 Duplicated bytes error (maybe fixed) : 0 Inconsistency in error sectors : 0
Track 06 Filename : /Users/nkirk/Desktop/xldout/06 - Better Than Me.flac /Users/nkirk/Desktop/xldout/06 - Better Than Me.mp3 CRC32 hash (test run) : 036C0543 CRC32 hash : 036C0543 CRC32 hash (skip zero) : 0A893A1E AccurateRip signature : 5947BF49 ->Track not present in AccurateRip database. Statistics Read error : 0 Skipped (treated as error) : 0 Edge jitter error (maybe fixed) : 0 Atom jitter error (maybe fixed) : 0 Drift error (maybe fixed) : 0 Dropped bytes error (maybe fixed) : 0 Duplicated bytes error (maybe fixed) : 0 Inconsistency in error sectors : 0
Track 07 Filename : /Users/nkirk/Desktop/xldout/07 - Room 21.flac /Users/nkirk/Desktop/xldout/07 - Room 21.mp3 CRC32 hash (test run) : 54F7BEB6 CRC32 hash : 54F7BEB6 CRC32 hash (skip zero) : F1602ABA AccurateRip signature : 75BB68AF ->Track not present in AccurateRip database. Statistics Read error : 0 Skipped (treated as error) : 0 Edge jitter error (maybe fixed) : 0 Atom jitter error (maybe fixed) : 0 Drift error (maybe fixed) : 0 Dropped bytes error (maybe fixed) : 0 Duplicated bytes error (maybe fixed) : 0 Inconsistency in error sectors : 0
Track 08 Filename : /Users/nkirk/Desktop/xldout/08 - Lips Of An Angel.flac /Users/nkirk/Desktop/xldout/08 - Lips Of An Angel.mp3 CRC32 hash (test run) : 25ECF9A5 CRC32 hash : 25ECF9A5 CRC32 hash (skip zero) : FD79D5D4 AccurateRip signature : 4AF2C916 ->Track not present in AccurateRip database. Statistics Read error : 0 Skipped (treated as error) : 0 Edge jitter error (maybe fixed) : 0 Atom jitter error (maybe fixed) : 0 Drift error (maybe fixed) : 0 Dropped bytes error (maybe fixed) : 0 Duplicated bytes error (maybe fixed) : 0 Inconsistency in error sectors : 0
Track 09 Filename : /Users/nkirk/Desktop/xldout/09 - Homecoming Queen.flac /Users/nkirk/Desktop/xldout/09 - Homecoming Queen.mp3 CRC32 hash (test run) : 09927F69 CRC32 hash : 09927F69 CRC32 hash (skip zero) : 9D5971D8 AccurateRip signature : 1841C57B ->Track not present in AccurateRip database. Statistics Read error : 0 Skipped (treated as error) : 0 Edge jitter error (maybe fixed) : 0 Atom jitter error (maybe fixed) : 0 Drift error (maybe fixed) : 0 Dropped bytes error (maybe fixed) : 0 Duplicated bytes error (maybe fixed) : 0 Inconsistency in error sectors : 0
Track 10 Filename : /Users/nkirk/Desktop/xldout/10 - Shoulda.flac /Users/nkirk/Desktop/xldout/10 - Shoulda.mp3 CRC32 hash (test run) : D7A4348A CRC32 hash : D7A4348A CRC32 hash (skip zero) : 258DFFF1 AccurateRip signature : 96F3EAC5 ->Track not present in AccurateRip database. Statistics Read error : 0 Skipped (treated as error) : 0 Edge jitter error (maybe fixed) : 0 Atom jitter error (maybe fixed) : 0 Drift error (maybe fixed) : 0 Dropped bytes error (maybe fixed) : 0 Duplicated bytes error (maybe fixed) : 0 Inconsistency in error sectors : 0
Track 11 Filename : /Users/nkirk/Desktop/xldout/11 - Uninhibited (Original Composition Inspired by the Music of Hinder).flac /Users/nkirk/Desktop/xldout/11 - Uninhibited (Original Composition Inspired by the Music of Hinder).mp3 CRC32 hash (test run) : 554AC359 CRC32 hash : 554AC359 CRC32 hash (skip zero) : 2E404D77 AccurateRip signature : D674CF19 ->Track not present in AccurateRip database. Statistics Read error : 0 Skipped (treated as error) : 0 Edge jitter error (maybe fixed) : 0 Atom jitter error (maybe fixed) : 0 Drift error (maybe fixed) : 0 Dropped bytes error (maybe fixed) : 0 Duplicated bytes error (maybe fixed) : 0 Inconsistency in error sectors : 0
No errors occurred
End of status report

cue

TITLE "Uninhibited: The String Quartet Tribute to Hinder"PERFORMER "The String Quartet Tribute"FILE "01 - Get Stoned.wav" WAVE TRACK 01 AUDIO TITLE "Get Stoned" INDEX 01 00:00:00FILE "02 - How Long.wav" WAVE TRACK 02 AUDIO TITLE "How Long" INDEX 01 00:00:00FILE "03 - By The Way.wav" WAVE TRACK 03 AUDIO TITLE "By The Way" INDEX 01 00:00:00FILE "04 - Nothin' Good About Goodbye.wav" WAVE TRACK 04 AUDIO TITLE "Nothin' Good About Goodbye" INDEX 01 00:00:00FILE "05 - Bliss (I Don't Wanna Know).wav" WAVE TRACK 05 AUDIO TITLE "Bliss (I Don't Wanna Know)" INDEX 01 00:00:00FILE "06 - Better Than Me.wav" WAVE TRACK 06 AUDIO TITLE "Better Than Me" INDEX 01 00:00:00FILE "07 - Room 21.wav" WAVE TRACK 07 AUDIO TITLE "Room 21" INDEX 01 00:00:00FILE "08 - Lips Of An Angel.wav" WAVE TRACK 08 AUDIO TITLE "Lips Of An Angel" INDEX 01 00:00:00FILE "09 - Homecoming Queen.wav" WAVE TRACK 09 AUDIO TITLE "Homecoming Queen" INDEX 01 00:00:00FILE "10 - Shoulda.wav" WAVE TRACK 10 AUDIO TITLE "Shoulda" INDEX 01 00:00:00FILE "11 - Uninhibited (Original Composition Inspired by the Music of Hinder).wav" WAVE TRACK 11 AUDIO TITLE "Uninhibited (Original Composition Inspired by the Music of Hinder)" INDEX 01 00:00:00



Показать сообщения:    

Текущее время: 09-Дек 18:31

Часовой пояс: UTC + 3


Вы не можете начинать темы
Вы не можете отвечать на сообщения
Вы не можете редактировать свои сообщения
Вы не можете удалять свои сообщения
Вы не можете голосовать в опросах
Вы не можете прикреплять файлы к сообщениям
Вы не можете скачивать файлы