(Strings/Classical) The String Quartet Tribute To Pink Floyd - 2002, FLAC (image+.cue), lossless


 

[Цитировать]

-The String Quartet Tribute To Pink Floyd- -Жанр: Strings/Classical
Год выпуска диска: 2002
Производитель диска: Vitamin Records - VTMN 8655 - U.S.A.
Аудио кодек: FLAC
Тип рипа: image+.cue
Битрейт аудио: lossless
Продолжительность: 51:32-Трэклист:
1. Echoes - 6:07
2. Have A Cigar - 4:40
3. Take Up Thy Stethoscope And Walk - 3:01
4. Hey You - 5:00
5. Comfortably Numb - 7:12
6. Money - 4:43
7. Breathe - 4:35
8. Another Brick In The Wall - 5:09
9. Wish You Were Here - 5:25
10. A Floydian Slip (Original Composition Inspired by the Music of Pink Floyd) - 5:18-Доп. информация:

EAC Log

Exact Audio Copy V0.99 prebeta 5 from 4. May 2009
EAC extraction logfile from 29. April 2010, 12:02
The String Quartet / A Tribute To Pink Floyd
Used drive : HL-DT-STDVDRAM GH20NS15 Adapter: 2 ID: 0
Read mode : Secure
Utilize accurate stream : Yes
Defeat audio cache : Yes
Make use of C2 pointers : No
Read offset correction : 667
Overread into Lead-In and Lead-Out : No
Fill up missing offset samples with silence : Yes
Delete leading and trailing silent blocks : No
Null samples used in CRC calculations : Yes
Used interface : Installed external ASPI interface
Used output format : User Defined Encoder
Selected bitrate : 1024 kBit/s
Quality : High
Add ID3 tag : No
Command line compressor : C:\Program Files (x86)\Exact Audio Copy\Flac\flac.exe
Additional command line options : -8 -A tukey(0.25) -A gauss(0.1875) -b 4096 -V -T "artist=%a" -T "title=%t" -T "album=%g" -T "date=%y" -T "tracknumber=%n" -T "genre=%m" %s --sector-align
TOC of the extracted CD
Track | Start | Length | Start sector | End sector
---------------------------------------------------------
1 | 0:00.00 | 6:09.30 | 0 | 27704
2 | 6:09.30 | 4:42.33 | 27705 | 48887
3 | 10:51.63 | 3:03.71 | 48888 | 62683
4 | 13:55.59 | 5:02.06 | 62684 | 85339
5 | 18:57.65 | 7:14.52 | 85340 | 117941
6 | 26:12.42 | 4:45.19 | 117942 | 139335
7 | 30:57.61 | 4:37.25 | 139336 | 160135
8 | 35:35.11 | 5:11.18 | 160136 | 183478
9 | 40:46.29 | 5:27.70 | 183479 | 208073
10 | 46:14.24 | 5:18.27 | 208074 | 231950
Range status and errors
Selected range
Filename C:\Users\Desktop\2002 - Tribute To Pink Floyd (The String Quartet)\The String Quartet - A Tribute To Pink Floyd.wav
Peak level 99.7 %
Range quality 100.0 %
Copy CRC AEA2A33C
Copy OK
No errors occurred
AccurateRip summary
Track 1 not present in database
Track 2 not present in database
Track 3 not present in database
Track 4 not present in database
Track 5 not present in database
Track 6 not present in database
Track 7 not present in database
Track 8 not present in database
Track 9 not present in database
Track 10 not present in database
None of the tracks are present in the AccurateRip database
End of status report

Audiochecker

AUDIOCHECKER v2.0 beta (build 457) - by Dester - opdester@freemail.hu
~~~~~~~~~~~~~~~~~~~~~~~~~~~~~~~~~~
-=== DO NOT EDIT THIS FILE! ===-
Path: ...\The String Quartet - Tribute To Pink Floyd (2002)
1 -=- The String Quartet - A Tribute To Pink Floyd.flac -=- CDDA (100%)
50872756

Комментарии

Credits
Doug Munro (Guitar (Acoustic)), Doug Munro (Guitar), Doug Munro (Arranger), Doug Munro (Guitar (Electric)), Doug Munro (Producer), Joe Ferry (Producer), David Keen (Violin), David Keen (Viola), Charlie Dahan (Executive Producer), Eric Helmuth (Engineer), Eric Helmuth (Mixing), Karrie M. Miller (Graphic Design), Karrie M. Miller (Cover Art), Ryan Foster (Mastering), Claire Stancarone (Cello), Michael Goetz (Bass), Richie Castellano (Transcription)
Review
The String Quartet Tribute to Pink Floyd is different from its peers in its instrumentation. While most of the Vitamin label's string tributes feature a lineup of two violins, a viola, and a bass, this release augments this arrangement with cello and guitar. While this technically makes the title mathematically invalid, it also gives the Pink Floyd tribute a fuller sound that's closer to the originals than many tributes of this sort. Guitarist Doug Munro (who also arranged the album) brings rhythmic structure to tracks like "Money" and "Comfortably Numb," freeing the violin and viola to handle most of the melodies. They render the drifting lull of the latter number especially well. A version of "Echoes" (from 1971's Meddle) is a standout, as is a spare, slightly urgent take on "Breath." Barring "Echoes" and a rendering of "Take up Thy Stethoscope and Walk" from Pink Floyd's 1967 debut that's neither here nor there, this tribute focuses exclusively on the hits, including "Wish You Were Here," "Another Brick in the Wall," and "Have a Cigar." There is also a curious Munro-penned number called "A Floydian Slip" that evidently is a tribute to Pink Floyd inside an album-sized tribute to Pink Floyd. Strange, but then again, the Floyd was never normal, so why should a tribute to them be? ~Johnny Loftus, All Music Guide
-



Показать сообщения:    

Текущее время: 05-Дек 03:21

Часовой пояс: UTC + 3


Вы не можете начинать темы
Вы не можете отвечать на сообщения
Вы не можете редактировать свои сообщения
Вы не можете удалять свои сообщения
Вы не можете голосовать в опросах
Вы не можете прикреплять файлы к сообщениям
Вы не можете скачивать файлы