(Classical Crossover|Vocal) Filippa Giordano - Passioni [selezione speciale] - 2005, FLAC (tracks+.cue), lossless


 

[Цитировать]

Filippa Giordano
Passioni
selezione speciale
Жанр: Classical Crossover|Vocal
Год выпуска диска: 2005
Производитель диска: Japan
Лейбл/№: Victor / VICP63203
Происхождение рипа: моя коллекция
Аудио кодек: FLAC
Тип рипа: tracks+.cue
Битрейт аудио: lossless
Продолжительность: 01:14:07

01. casta diva
02. o mio babbino caro
03. va' pensiero
04. plaisir d'amour
05. habanera
06. un bel di vedremo
07. la barcarolle {duet with Frida}
08. ave maria
09. vissi d'arte
10. che luce sei
11. dove andiamo noi
12. l'alba verra
13. lost boys calling
14. coro a bocca chiusa
15. addio del passato
16. s'apre per te il mio cuor
17. il rosso amore
18. up to the light
19. il canto della terra
20. maternita
21. stella

Лог ЕАС

Exact Audio Copy V0.99 prebeta 5 from 4. May 2009
EAC extraction logfile from 1. April 2010, 20:37
Filippa Giordano / Passioni
Used drive : _NEC DVD_RW ND-3570A Adapter: 4 ID: 0
Read mode : Secure
Utilize accurate stream : Yes
Defeat audio cache : Yes
Make use of C2 pointers : No
Read offset correction : 48
Overread into Lead-In and Lead-Out : No
Fill up missing offset samples with silence : Yes
Delete leading and trailing silent blocks : No
Null samples used in CRC calculations : Yes
Used interface : Installed external ASPI interface
Gap handling : Not detected, thus appended to previous track
Used output format : User Defined Encoder
Selected bitrate : 128 kBit/s
Quality : High
Add ID3 tag : No
Command line compressor : D:\Program Files\FLAC\flac.exe
Additional command line options : -8 -V -T "ARTIST=%a" -T "TITLE=%t" -T "ALBUM=%g" -T "DATE=%y" -T "TRACKNUMBER=%n" -T "GENRE=%m" -T "COMMENT=EAC FLAC -8" %s
TOC of the extracted CD
Track | Start | Length | Start sector | End sector
---------------------------------------------------------
1 | 0:00.00 | 4:07.33 | 0 | 18557
2 | 4:07.33 | 2:32.02 | 18558 | 29959
3 | 6:39.35 | 3:30.48 | 29960 | 45757
4 | 10:10.08 | 3:22.42 | 45758 | 60949
5 | 13:32.50 | 3:49.00 | 60950 | 78124
6 | 17:21.50 | 3:50.45 | 78125 | 95419
7 | 21:12.20 | 2:57.35 | 95420 | 108729
8 | 24:09.55 | 2:50.65 | 108730 | 121544
9 | 27:00.45 | 2:59.10 | 121545 | 134979
10 | 29:59.55 | 4:33.05 | 134980 | 155459
11 | 34:32.60 | 4:33.68 | 155460 | 176002
12 | 39:06.53 | 4:28.30 | 176003 | 196132
13 | 43:35.08 | 3:59.50 | 196133 | 214107
14 | 47:34.58 | 3:04.25 | 214108 | 227932
15 | 50:39.08 | 3:16.32 | 227933 | 242664
16 | 53:55.40 | 3:39.40 | 242665 | 259129
17 | 57:35.05 | 4:36.23 | 259130 | 279852
18 | 62:11.28 | 3:31.37 | 279853 | 295714
19 | 65:42.65 | 1:56.03 | 295715 | 304417
20 | 67:38.68 | 2:13.27 | 304418 | 314419
21 | 69:52.20 | 4:14.55 | 314420 | 333524
Track 1
Filename D:\convert\01. Filippa Giordano - casta diva.wav
Peak level 97.9 %
Track quality 100.0 %
Test CRC 2E7FFE39
Copy CRC 2E7FFE39
Accurately ripped (confidence 1) [F9197FB6]
Copy OK
Track 2
Filename D:\convert\02. Filippa Giordano - o mio babbino caro.wav
Peak level 97.9 %
Track quality 100.0 %
Test CRC FF24F565
Copy CRC FF24F565
Accurately ripped (confidence 1) [7CCB23F0]
Copy OK
Track 3
Filename D:\convert\03. Filippa Giordano - va' pensiero.wav
Peak level 97.9 %
Track quality 100.0 %
Test CRC 3B65A535
Copy CRC 3B65A535
Accurately ripped (confidence 1) [F66A7D50]
Copy OK
Track 4
Filename D:\convert\04. Filippa Giordano - plaisir d'amour.wav
Peak level 97.9 %
Track quality 99.9 %
Test CRC 8527E10A
Copy CRC 8527E10A
Accurately ripped (confidence 1) [B17C0EBC]
Copy OK
Track 5
Filename D:\convert\05. Filippa Giordano - habanera.wav
Peak level 97.9 %
Track quality 100.0 %
Test CRC 25091568
Copy CRC 25091568
Accurately ripped (confidence 2) [723F0FBE]
Copy OK
Track 6
Filename D:\convert\06. Filippa Giordano - un bel di vedremo.wav
Peak level 97.9 %
Track quality 100.0 %
Test CRC 898DC9BA
Copy CRC 898DC9BA
Accurately ripped (confidence 1) [2BDB5AA2]
Copy OK
Track 7
Filename D:\convert\07. Filippa Giordano - la barcarolle.wav
Peak level 97.7 %
Track quality 100.0 %
Test CRC 5F9E40DE
Copy CRC 5F9E40DE
Accurately ripped (confidence 1) [06604C38]
Copy OK
Track 8
Filename D:\convert\08. Filippa Giordano - ave maria.wav
Peak level 97.9 %
Track quality 100.0 %
Test CRC 9CDA2979
Copy CRC 9CDA2979
Accurately ripped (confidence 1) [61268BFE]
Copy OK
Track 9
Filename D:\convert\09. Filippa Giordano - vissi d'arte.wav
Peak level 97.9 %
Track quality 100.0 %
Test CRC 435D53B3
Copy CRC 435D53B3
Accurately ripped (confidence 1) [DA2B7137]
Copy OK
Track 10
Filename D:\convert\10. Filippa Giordano - che luce sei.wav
Peak level 97.9 %
Track quality 100.0 %
Test CRC D90684E2
Copy CRC D90684E2
Accurately ripped (confidence 1) [D6A5C0BB]
Copy OK
Track 11
Filename D:\convert\11. Filippa Giordano - dove andiamo noi.wav
Peak level 93.4 %
Track quality 100.0 %
Test CRC 00050048
Copy CRC 00050048
Accurately ripped (confidence 1) [461A4DC0]
Copy OK
Track 12
Filename D:\convert\12. Filippa Giordano - l'alba verra.wav
Peak level 93.4 %
Track quality 100.0 %
Test CRC DCF5789E
Copy CRC DCF5789E
Accurately ripped (confidence 1) [73D698BF]
Copy OK
Track 13
Filename D:\convert\13. Filippa Giordano - lost boys calling.wav
Peak level 97.9 %
Track quality 100.0 %
Test CRC 171E50CD
Copy CRC 171E50CD
Accurately ripped (confidence 1) [1EF76725]
Copy OK
Track 14
Filename D:\convert\14. Filippa Giordano - coro a bocca chiusa.wav
Peak level 97.9 %
Track quality 100.0 %
Test CRC 8430F7FC
Copy CRC 8430F7FC
Accurately ripped (confidence 1) [6293BBEF]
Copy OK
Track 15
Filename D:\convert\15. Filippa Giordano - addio del passato.wav
Peak level 97.9 %
Track quality 99.1 %
Test CRC B7E9CD10
Copy CRC B7E9CD10
Accurately ripped (confidence 1) [3586F473]
Copy OK
Track 16
Filename D:\convert\16. Filippa Giordano - s'apre per te il mio cuor.wav
Peak level 97.9 %
Track quality 100.0 %
Test CRC 8F169A59
Copy CRC 8F169A59
Accurately ripped (confidence 1) [3F6E56EE]
Copy OK
Track 17
Filename D:\convert\17. Filippa Giordano - il rosso amore.wav
Peak level 94.5 %
Track quality 100.0 %
Test CRC 1BF6BE24
Copy CRC 1BF6BE24
Accurately ripped (confidence 1) [A83741DA]
Copy OK
Track 18
Filename D:\convert\18. Filippa Giordano - up to the light.wav
Peak level 92.2 %
Track quality 99.9 %
Test CRC F805873A
Copy CRC F805873A
Accurately ripped (confidence 1) [25377046]
Copy OK
Track 19
Filename D:\convert\19. Filippa Giordano - il canto della terra.wav
Peak level 87.9 %
Track quality 100.0 %
Test CRC 188587A7
Copy CRC 188587A7
Accurately ripped (confidence 1) [8668F2B3]
Copy OK
Track 20
Filename D:\convert\20. Filippa Giordano - maternita.wav
Peak level 91.1 %
Track quality 100.0 %
Test CRC 03C3B5B3
Copy CRC 03C3B5B3
Accurately ripped (confidence 1) [6C36DC26]
Copy OK
Track 21
Filename D:\convert\21. Filippa Giordano - stella.wav
Peak level 97.9 %
Track quality 100.0 %
Test CRC 29C6DC28
Copy CRC 29C6DC28
Accurately ripped (confidence 1) [0DFA1D17]
Copy OK
All tracks accurately ripped
No errors occurred
End of status report

CUE

REM GENRE Vocal
REM DATE 2005
REM DISCID 10115F15
REM COMMENT "ExactAudioCopy v0.99pb5"
PERFORMER "Filippa Giordano"
TITLE "Passioni"
FILE "01. Filippa Giordano - casta diva.wav" WAVE
TRACK 01 AUDIO
TITLE "casta diva"
PERFORMER "Filippa Giordano"
INDEX 01 00:00:00
TRACK 02 AUDIO
TITLE "o mio babbino caro"
PERFORMER "Filippa Giordano"
INDEX 00 04:04:71
FILE "02. Filippa Giordano - o mio babbino caro.wav" WAVE
INDEX 01 00:00:00
TRACK 03 AUDIO
TITLE "va' pensiero"
PERFORMER "Filippa Giordano"
INDEX 00 02:29:41
FILE "03. Filippa Giordano - va' pensiero.wav" WAVE
INDEX 01 00:00:00
TRACK 04 AUDIO
TITLE "plaisir d'amour"
PERFORMER "Filippa Giordano"
INDEX 00 03:28:11
FILE "04. Filippa Giordano - plaisir d'amour.wav" WAVE
INDEX 01 00:00:00
TRACK 05 AUDIO
TITLE "habanera"
PERFORMER "Filippa Giordano"
INDEX 00 03:20:06
FILE "05. Filippa Giordano - habanera.wav" WAVE
INDEX 01 00:00:00
TRACK 06 AUDIO
TITLE "un bel di vedremo"
PERFORMER "Filippa Giordano"
INDEX 00 03:46:39
FILE "06. Filippa Giordano - un bel di vedremo.wav" WAVE
INDEX 01 00:00:00
TRACK 07 AUDIO
TITLE "la barcarolle"
PERFORMER "Filippa Giordano"
INDEX 00 03:48:09
FILE "07. Filippa Giordano - la barcarolle.wav" WAVE
INDEX 01 00:00:00
TRACK 08 AUDIO
TITLE "ave maria"
PERFORMER "Filippa Giordano"
INDEX 00 02:54:74
FILE "08. Filippa Giordano - ave maria.wav" WAVE
INDEX 01 00:00:00
TRACK 09 AUDIO
TITLE "vissi d'arte"
PERFORMER "Filippa Giordano"
INDEX 00 02:48:29
FILE "09. Filippa Giordano - vissi d'arte.wav" WAVE
INDEX 01 00:00:00
TRACK 10 AUDIO
TITLE "che luce sei"
PERFORMER "Filippa Giordano"
INDEX 00 02:56:49
FILE "10. Filippa Giordano - che luce sei.wav" WAVE
INDEX 01 00:00:00
TRACK 11 AUDIO
TITLE "dove andiamo noi"
PERFORMER "Filippa Giordano"
INDEX 00 04:30:44
FILE "11. Filippa Giordano - dove andiamo noi.wav" WAVE
INDEX 01 00:00:00
TRACK 12 AUDIO
TITLE "l'alba verra"
PERFORMER "Filippa Giordano"
INDEX 00 04:31:31
FILE "12. Filippa Giordano - l'alba verra.wav" WAVE
INDEX 01 00:00:00
TRACK 13 AUDIO
TITLE "lost boys calling"
PERFORMER "Filippa Giordano"
INDEX 00 04:25:68
FILE "13. Filippa Giordano - lost boys calling.wav" WAVE
INDEX 01 00:00:00
TRACK 14 AUDIO
TITLE "coro a bocca chiusa"
PERFORMER "Filippa Giordano"
INDEX 00 03:57:13
FILE "14. Filippa Giordano - coro a bocca chiusa.wav" WAVE
INDEX 01 00:00:00
TRACK 15 AUDIO
TITLE "addio del passato"
PERFORMER "Filippa Giordano"
INDEX 00 03:01:63
FILE "15. Filippa Giordano - addio del passato.wav" WAVE
INDEX 01 00:00:00
TRACK 16 AUDIO
TITLE "s'apre per te il mio cuor"
PERFORMER "Filippa Giordano"
INDEX 00 03:13:71
FILE "16. Filippa Giordano - s'apre per te il mio cuor.wav" WAVE
INDEX 01 00:00:00
TRACK 17 AUDIO
TITLE "il rosso amore"
PERFORMER "Filippa Giordano"
INDEX 00 03:36:41
FILE "17. Filippa Giordano - il rosso amore.wav" WAVE
INDEX 01 00:00:00
TRACK 18 AUDIO
TITLE "up to the light"
PERFORMER "Filippa Giordano"
INDEX 00 04:33:61
FILE "18. Filippa Giordano - up to the light.wav" WAVE
INDEX 01 00:00:00
TRACK 19 AUDIO
TITLE "il canto della terra"
PERFORMER "Filippa Giordano"
INDEX 00 03:29:01
FILE "19. Filippa Giordano - il canto della terra.wav" WAVE
INDEX 01 00:00:00
TRACK 20 AUDIO
TITLE "maternita"
PERFORMER "Filippa Giordano"
INDEX 00 01:53:41
FILE "20. Filippa Giordano - maternita.wav" WAVE
INDEX 01 00:00:00
TRACK 21 AUDIO
TITLE "stella"
PERFORMER "Filippa Giordano"
INDEX 00 02:10:66
FILE "21. Filippa Giordano - stella.wav" WAVE
INDEX 01 00:00:00

Filippa & Frida

Ковры будут. ПопозжеКак записать потрековый релиз на CD



Показать сообщения:    

Текущее время: 10-Дек 00:21

Часовой пояс: UTC + 3


Вы не можете начинать темы
Вы не можете отвечать на сообщения
Вы не можете редактировать свои сообщения
Вы не можете удалять свои сообщения
Вы не можете голосовать в опросах
Вы не можете прикреплять файлы к сообщениям
Вы не можете скачивать файлы