(Opera, Trance) Trance Opera — Dacapo - 2001, FLAC (image+.cue), lossless


 

[Цитировать]

Trance Opera — Dacapo
Жанр: Opera, Trance
Год выпуска диска: 2001
Производитель диска: Голландия
Аудио кодек: FLAC
Тип рипа: image+.cue
Битрейт аудио: lossless
Продолжительность: 1:11:14
Трэклист:
1. Overture/La Nozze de Figaro/Mozart (5:27)
2. Caro Nome/Rigoletto/Verdi-Charlae Olaker (7:20)
3. Una Furtiva Lagrima/L'Elisir D'Amore/Donizetti-Jeffiey Dowd (5:58)
4. Omibra Mai Fu/Xerxes/Handel-Charlae Olaker (7:22)
5. Donna Non Vidi Mai/Manon Lescaut/Puccini-Jeffiey Dowd (6:13)
6. Una Voce Poco Fa/Il Barbiere Di Siviglia/Rossini-Brigitta Borchers (6:34)
7. Va Pensiero/Nabucco/Verdi-Dacapo Vocal Ensemble (5:07)
8. Mon Coeur S'ouvre A Ta Voix/Samson Et Dalila/Saint-Saens-Sonia Tudor (8:06)
9. O Mio Babbino Caro/Gianni Schicci/Puccini-Charlae Olaker (5:41)
10. Mappart, Tutt' Amor/Martha/Flotow-Christian Baumgaertel (6:48)
11. Gloria All' Egitto/Aida/Verdi-Dacapo Vocal Ensemble (6:36)
Можно ли связать между собой оперу и электронное звучание? Оказывается, можно. Различные электронные аранжировщики собрали свои переработки классических оперных произведений и выпустили их под названием "Trance Opera - Dacapo". Данный эксперимент ставит целью доказать, что таким образом классическое вокальное искусство может стать народу ближе.Приставка "Dacapo" в музыкальной терминологии обозначает особую форму, при которой заключительная часть произведения полностью повторяет первую. В партитуре в этом месте стоит "d.c." или "Dacapo". В нашем же случае она указывает, наверное, на DACAPO VOCAL ENSEMBLE, исполнивший две арии из опер Верди "Aida" и "Nabucco". Остальные ремикшеры неизвестны, да и упоминания не заслуживают. Дело в том, что они просто взяли оригинал и сделали наслоение ритма. Конечно, при этом не забыли про широкое использование MIDI и прочих достижений современной технической мысли. Но, повторюсь, на диске "Trance Opera" звучит не транс, а все-таки опера. Правда, произведения взяты достойные и известные: Верди ("Риголетто" и упомянутые выше оперы), Пуччини ("Манон Леско", "Gianni Schicci"), Россини ("Севильский цирюльник"), Моцарт ("Женитьба Фигаро"), Сен-Санс ("Самсон и Далила"), Доницетти ("Любовный эликсир"), Гендель ("Ксеркс") и Флотов ("Марта"). Последний из композиторов наименее мне известен, но его произведение звучит довольно интересно.Следует напомнить, что есть совсем недавний прецедент обращения электронного музыканта к классической музыке. Я имею в виду, конечно же, Уильяма Орбита с прошлогодним альбомом "Pieces In A Modern Style". Пьесы он выбрал со вкусом и сделал их отличные авторские интерпретации. Альбом получился "не для всех", ставший известным широкой публике благодаря трансовому ремиксу Ферри Корстена на "Adagio For Strings" Самюэля Барбера (из альбома Орбита, разумеется).Ну, а "Trance Opera"... Этот диск можно подарить на день рождения девушке, чтобы не ходить с ней в оперу.

EAC log

Exact Audio Copy V0.99 prebeta 4 from 23. January 2008
Отчёт EAC об извлечении, выполненном 24. февраля 2010, 19:17
Trance Opera / The Complete Masterworks CD3 - Dacapo
Дисковод: Optiarc DVD RW AD-7170A Adapter: 0 ID: 2
Режим чтения : Достоверность
Использование точного потока : Да
Отключение кэша аудио : Да
Использование указателей C2 : Нет
Коррекция смещения при чтении : 48
Способность читать области Lead-in и Lead-out : Нет
Заполнение пропущенных сэмплов тишиной : Да
Удаление блоков с тишиной в начале и конце : Нет
При вычислениях CRC использовались нулевые сэмплы : Да
Интерфейс : Установленный внешний ASPI-интерфейс
Выходной формат : Пользовательский кодировщик
Выбранный битрейт : 768 kBit/s
Качество : Высокий
Добавление ID3-тэга : Нет
Утилита сжатия : C:\Program Files\Exact Audio Copy\FLAC\FLAC.EXE
Дополнительные параметры : -6 -V -T "ARTIST=%a" -T "TITLE=%t" -T "ALBUM=%g" -T "DATE=%y" -T "TRACKNUMBER=%n" -T "GENRE=%m" -T "COMMENT=%e" %s -o %d
TOC извлечённого CD
Трек | Старт | Длительность | Начальный сектор | Конечный сектор
---------------------------------------------------------------------
1 | 0:00.00 | 5:27.27 | 0 | 24551
2 | 5:27.27 | 7:20.30 | 24552 | 57581
3 | 12:47.57 | 5:58.18 | 57582 | 84449
4 | 18:46.00 | 7:21.72 | 84450 | 117596
5 | 26:07.72 | 6:13.30 | 117597 | 145601
6 | 32:21.27 | 6:33.50 | 145602 | 175126
7 | 38:55.02 | 5:07.35 | 175127 | 198186
8 | 44:02.37 | 8:05.48 | 198187 | 234609
9 | 52:08.10 | 5:41.42 | 234610 | 260226
10 | 57:49.52 | 6:48.30 | 260227 | 290856
11 | 64:38.07 | 6:36.30 | 290857 | 320586
Характеристики диапазона извлечения и сообщения об ошибках
Выбранный диапазон
Имя файла D:\Музыка\Trance Opera - Dacapo - 2001\Trance Opera - The Complete Masterworks CD3 - Dacapo.wav
Пиковый уровень 98.8 %
Качество диапазона 100.0 %
CRC теста 0E25EDA1
CRC копии 0E25EDA1
Копирование... OK
Ошибок не произошло
AccurateRip: сводка
Трек 1 нет в базе данных
Трек 2 нет в базе данных
Трек 3 нет в базе данных
Трек 4 нет в базе данных
Трек 5 нет в базе данных
Трек 6 нет в базе данных
Трек 7 нет в базе данных
Трек 8 нет в базе данных
Трек 9 нет в базе данных
Трек 10 нет в базе данных
Трек 11 нет в базе данных
Ни одного трека нет в базе AccurateRip
Конец отчёта



Показать сообщения:    

Текущее время: 09-Дек 14:38

Часовой пояс: UTC + 3


Вы не можете начинать темы
Вы не можете отвечать на сообщения
Вы не можете редактировать свои сообщения
Вы не можете удалять свои сообщения
Вы не можете голосовать в опросах
Вы не можете прикреплять файлы к сообщениям
Вы не можете скачивать файлы