(Инструментальная музыка) Династия - Париж, Весна, Романтика - 2008, FLAC (image+.cue), lossless


 

[Цитировать]

(Инструментальная музыка) Династия - Париж, Весна, Романтика
Жанр: Инструментальная музыка
Год выпуска диска: 2008
Аудио кодек: FLAC
Тип рипа: image+.cue
Битрейт аудио: lossless
Продолжительность: 28:39
Трэклист:
1. Предчувствие грозы ("Шторм" А. Вивальди) (3:42)
2. Космос ("Прелюдия и фуга d-moll" И.-С. Бах) (3:26)
3. Мечта о снеге ("Зима" А. Вивальди) (4:01)
4. Фейерверк ("Канкан" Ж. Оффенбах) (3:28)
5. Потаенная нежность ("Адажио" Т. Альбинони) (3:24)
6. Возвращение домой ("Каприс № 24 ля минор" Н. Паганини) (3:15)
7. Праздник ("Венгерский танец" И. Брамс) (2:51)
8. Воспоминание ("Адажио для струнных" С. Барбер) (4:21)
Отчет EAC:

скрытый текст

Exact Audio Copy V0.99 prebeta 5 from 4. May 2009
EAC extraction logfile from 14. March 2010, 22:35
VA / Parizh, Vesna, Romantika
Used drive : LITE-ON DVDRW LH-20A1H Adapter: 3 ID: 0
Read mode : Secure
Utilize accurate stream : Yes
Defeat audio cache : Yes
Make use of C2 pointers : No
Read offset correction : 6
Overread into Lead-In and Lead-Out : No
Fill up missing offset samples with silence : Yes
Delete leading and trailing silent blocks : No
Null samples used in CRC calculations : Yes
Used interface : Native Win32 interface for Win NT & 2000
Used output format : User Defined Encoder
Selected bitrate : 128 kBit/s
Quality : High
Add ID3 tag : No
Command line compressor : C:\Program Files\Exact Audio Copy\FLAC\FLAC.EXE
Additional command line options : -8 -V %s
TOC of the extracted CD
Track | Start | Length | Start sector | End sector
---------------------------------------------------------
1 | 0:00.00 | 3:43.73 | 0 | 16797
2 | 3:43.73 | 3:27.37 | 16798 | 32359
3 | 7:11.35 | 4:00.53 | 32360 | 50412
4 | 11:12.13 | 3:30.09 | 50413 | 66171
5 | 14:42.22 | 3:26.00 | 66172 | 81621
6 | 18:08.22 | 3:17.27 | 81622 | 96423
7 | 21:25.49 | 2:52.37 | 96424 | 109360
8 | 24:18.11 | 4:21.00 | 109361 | 128935
Range status and errors
Selected range
Filename G:\Мои документы\VA - Parizh, Vesna, Romantika.wav
Peak level 98.7 %
Range quality 100.0 %
Test CRC 6B72913E
Copy CRC 6B72913E
Copy OK
No errors occurred
End of status report



Показать сообщения:    

Текущее время: 09-Дек 01:09

Часовой пояс: UTC + 3


Вы не можете начинать темы
Вы не можете отвечать на сообщения
Вы не можете редактировать свои сообщения
Вы не можете удалять свои сообщения
Вы не можете голосовать в опросах
Вы не можете прикреплять файлы к сообщениям
Вы не можете скачивать файлы