(Symphonic/Instrumental) The 101 Strings Orchestra - The Beatles tribute (Vol.2) - 2002, FLAC (image+.cue), lossless


 

[Цитировать]

The 101 Strings Orchestra - The Beatles (Volume 2)
Жанр: Symphonic/Instrumental
Год выпуска диска: 2002
Производитель диска: Made in U.S.A. / Printed in Canada
Аудио кодек: FLAC
Тип рипа: image+.cue
Битрейт аудио: lossless
Продолжительность: 43:07
Трэклист:
01 - Penny Lane (5:27)
02 - Yesterday (5:14)
03 - Strawberry Fields Forever (4:27)
04 - When I'm 64 (3:03)
05 - Help! (5:57)
06 - She's Leaving Home (2:53)
07 - Till There Was You (5:58)
08 - Come Together (4:17)
09 - Yellow Submarine (2:23)
10 - In My Life (3:28)
Аранжировка:
Композиции 1,2,4,6,8,9,10 - Greg Sims;
Композиция 3 - Tom Macklin;
Композиция 5 - Andrew Lane;
Композиция 7 - J.R. Valery.
Дирижёр: Greg Sims.
Доп. информация: Увлекательное плавное "путешествие" в мир Beatles в классической обработке с очень приятной интерпретацией, исполненное The 101 Strings Orchestra, слушается на одном дыхании.

The 101 Strings Orchestra

"101 Strings" - название очень успешного симфонического музыкального формирования стиля Easy Listening (Легкой музыки) с дискографией, превышающей сто альбомов и творчесской жизнью в тридцать лет. Их долгоиграющие пластинки отличались слоганом "Звук Великолепия", мягко-облачным логотипом и фотографией оркестра в сепия-стиле. The 101 Strings Orchestra под управлением Wilhelm Stephan состоял фактически из 124 струнных инструментов (все мужчины, кроме арфистки). Самая популярная фотография оркестра была сделана в оркестровом павильоне в Гамбурге (Германия).

Отчёт EAC

Exact Audio Copy V0.99 prebeta 5 from 4. May 2009
Отчёт EAC об извлечении, выполненном 27. февраля 2010, 14:26
The 101 Strings Orchestra / The Beatles Vol. 2
Дисковод: TEAC CD-W548E Adapter: 3 ID: 1
Режим чтения : ДостоверностьИспользование точного потока : ДаОтключение кэша аудио : ДаИспользование указателей C2 : Нет
Коррекция смещения при чтении : 12Способность читать области Lead-in и Lead-out : НетЗаполнение пропущенных сэмплов тишиной : ДаУдаление блоков с тишиной в начале и конце : НетПри вычислениях CRC использовались нулевые сэмплы : ДаИнтерфейс : Встроенный Win32-интерфейс для Win NT/2000
Выходной формат : Пользовательский кодировщикВыбранный битрейт : 320 kBit/sКачество : ВысокийДобавление ID3-тэга : ДаУтилита сжатия : C:\Program Files\FLAC\flac.exeДополнительные параметры : -8 -V %s
TOC извлечённого CD
Трек | Старт | Длительность | Начальный сектор | Конечный сектор --------------------------------------------------------------------- 1 | 0:00.00 | 5:26.42 | 0 | 24491 2 | 5:26.42 | 5:14.26 | 24492 | 48067 3 | 10:40.68 | 4:26.72 | 48068 | 68089 4 | 15:07.65 | 3:03.25 | 68090 | 81839 5 | 18:11.15 | 5:57.34 | 81840 | 108648 6 | 24:08.49 | 2:52.59 | 108649 | 121607 7 | 27:01.33 | 5:58.26 | 121608 | 148483 8 | 32:59.59 | 4:16.74 | 148484 | 167757 9 | 37:16.58 | 2:22.69 | 167758 | 178476 10 | 39:39.52 | 3:28.01 | 178477 | 194077
Характеристики диапазона извлечения и сообщения об ошибках
Выбранный диапазон
Имя файла D:\MUSIC_[+]\!!FLAC\101\The 101 Strings Orchestra - '2002 - The Beatles Vol. 2'.wav
Пиковый уровень 99.9 % Качество диапазона 100.0 % CRC теста B21C85E5 CRC копии B21C85E5 Копирование... OK
Ошибок не произошло
AccurateRip: сводка
Трек 1 нет в базе данныхТрек 2 нет в базе данныхТрек 3 нет в базе данныхТрек 4 нет в базе данныхТрек 5 нет в базе данныхТрек 6 нет в базе данныхТрек 7 нет в базе данныхТрек 8 нет в базе данныхТрек 9 нет в базе данныхТрек 10 нет в базе данных
Ни одного трека нет в базе AccurateRip
Конец отчёта



Показать сообщения:    

Текущее время: 04-Дек 06:58

Часовой пояс: UTC + 3


Вы не можете начинать темы
Вы не можете отвечать на сообщения
Вы не можете редактировать свои сообщения
Вы не можете удалять свои сообщения
Вы не можете голосовать в опросах
Вы не можете прикреплять файлы к сообщениям
Вы не можете скачивать файлы