(Classical, Cello, Beatles) Ofra Harnoy, Orford Quartet - Beatles by 5 - 1986, WAVPack (image+.cue), lossless


 

[Цитировать]

Ofra Harnoy, Orford Quartet - Beatles by 5
Жанр: Classical, Cello, Beatles
Год выпуска диска: 1986
Производитель диска: USA
Аудио кодек: WAVPack
Тип рипа: image+.cue
Битрейт аудио: lossless
Продолжительность: 32:20
Трэклист:
01 Eleanor Rigby
02 Here, There and Everywhere
03 In My Life
04 And I Love Her
05 Strawberry Fields Forever/The Fool on the Hill
06 When I'm Sixty-Four
07 Michelle
08 Nowhere Man
09 Yesterday
10 Something
11 Girl
Рип от transgressions, HQS.

EAC extraction logfile

Exact Audio Copy V0.99 prebeta 5 from 4. May 2009
EAC extraction logfile from 15. February 2010, 15:23
Ofra Harnoy, cello, Orford Quartet / Beatles by 5
Used drive : HL-DT-STDVDRAM GH20NS15 Adapter: 2 ID: 0
Read mode : SecureUtilize accurate stream : YesDefeat audio cache : YesMake use of C2 pointers : No
Read offset correction : 667Overread into Lead-In and Lead-Out : NoFill up missing offset samples with silence : YesDelete leading and trailing silent blocks : NoNull samples used in CRC calculations : YesUsed interface : Native Win32 interface for Win NT & 2000
Used output format : Internal WAV RoutinesSample format : 44.100 Hz; 16 Bit; Stereo
TOC of the extracted CD
Track | Start | Length | Start sector | End sector --------------------------------------------------------- 1 | 0:00.00 | 2:13.40 | 0 | 10014 2 | 2:13.40 | 2:41.67 | 10015 | 22156 3 | 4:55.32 | 2:59.20 | 22157 | 35601 4 | 7:54.52 | 2:11.58 | 35602 | 45484 5 | 10:06.35 | 4:46.52 | 45485 | 66986 6 | 14:53.12 | 2:54.68 | 66987 | 80104 7 | 17:48.05 | 3:34.47 | 80105 | 96201 8 | 21:22.52 | 2:56.00 | 96202 | 109401 9 | 24:18.52 | 2:29.33 | 109402 | 120609 10 | 26:48.10 | 2:31.57 | 120610 | 131991 11 | 29:19.67 | 3:05.63 | 131992 | 145929
Range status and errors
Selected range
Filename C:\musjk\Ofra Harnoy, cello, Orford Quartet - Beatles by 5.wav
Peak level 78.3 % Range quality 100.0 % Test CRC 2EA7423B Copy CRC 2EA7423B Copy OK
No errors occurred
AccurateRip summary
Track 1 accurately ripped (confidence 5) [531331CB]Track 2 accurately ripped (confidence 5) [F50BFCA9]Track 3 accurately ripped (confidence 5) [A91971F5]Track 4 accurately ripped (confidence 5) [6D52E07C]Track 5 accurately ripped (confidence 5) [05C6237E]Track 6 accurately ripped (confidence 4) [820BDF15]Track 7 accurately ripped (confidence 4) [1B551044]Track 8 accurately ripped (confidence 4) [D909C896]Track 9 accurately ripped (confidence 4) [96A90D42]Track 10 accurately ripped (confidence 5) [079B2B84]Track 11 accurately ripped (confidence 4) [8BF69BEE]
All tracks accurately ripped
End of status report

Audiochecker logfile

Started at: пятница, 26. 02. 2010. - 21:49.241 file found
1 -===- c:\1\Ofra Harnoy, cello, Orford Quartet - Beatles by 5.wav Conclusion: this track is CDDA with probability 100%
Finished at: пятница, 26. 02. 2010. - 21:51.30 (operation time: 0:02.05)
Приятных впечатлений!



Показать сообщения:    

Текущее время: 06-Дек 22:57

Часовой пояс: UTC + 3


Вы не можете начинать темы
Вы не можете отвечать на сообщения
Вы не можете редактировать свои сообщения
Вы не можете удалять свои сообщения
Вы не можете голосовать в опросах
Вы не можете прикреплять файлы к сообщениям
Вы не можете скачивать файлы