(Pop/Rock, Classical, Calssical Crossover, Vocal) Blake – Together - 2009, FLAC (image+.cue), lossless


 

[Цитировать]

Blake – Together
Жанр: Pop/Rock, Classical, Calssical Crossover, Vocal
Год выпуска диска: 2009
Производитель диска: UK (Blake Records)
Аудио кодек: FLAC
Тип рипа: image+.cue
Битрейт аудио: lossless
Продолжительность: 0:49:28
-01. With Or Without You 04:50
02. Bring Him Home 03:37
03. Bridge Over Troubled Water 04:49
04. Abide With Me 05:49
05. La Califfa 03:17
06. She (Julian Smith on Saxaphone) 03:18
07. I Vow To Thee My Country 03:43
08. She Was Beautiful 03:11
09. Ave Maria 03:45
10. Nessun Dorma 03:19
11. Unsung Hero 03:39
12. Titans 03:31
13. When A Child Is Born 02:34- Сканы внутри
Другие альбомы BLAKE:
http://rutracker.org/forum/viewtopic.php?t=1168452
http://rutracker.org/forum/viewtopic.php?t=1471760

LOG

Exact Audio Copy V0.99 prebeta 3 from 28. July 2007
EAC extraction logfile from 9. February 2010, 10:03
Blake / Together
Used drive : TSSTcorpCDDVDW SE-S204N Adapter: 6 ID: 4
Read mode : Secure
Utilize accurate stream : Yes
Defeat audio cache : Yes
Make use of C2 pointers : No
Read offset correction : 6
Overread into Lead-In and Lead-Out : No
Fill up missing offset samples with silence : Yes
Delete leading and trailing silent blocks : No
Null samples used in CRC calculations : Yes
Used interface : Installed external ASPI interface
Used output format : User Defined Encoder
Selected bitrate : 768 kBit/s
Quality : High
Add ID3 tag : No
Command line compressor : H:\Program Files\Exact Audio Copy\FLAC\FLAC.EXE
Additional command line options : -6 -V -T "ARTIST=%a" -T "TITLE=%t" -T "ALBUM=%g" -T "DATE=%y" -T "TRACKNUMBER=%n" -T "GENRE=%m" -T "COMMENT=%e" %s -o %d
TOC of the extracted CD
Track | Start | Length | Start sector | End sector
---------------------------------------------------------
1 | 0:00.00 | 4:50.02 | 0 | 21751
2 | 4:50.02 | 3:37.63 | 21752 | 38089
3 | 8:27.65 | 4:49.48 | 38090 | 59812
4 | 13:17.38 | 5:49.05 | 59813 | 85992
5 | 19:06.43 | 3:17.31 | 85993 | 100798
6 | 22:23.74 | 3:18.46 | 100799 | 115694
7 | 25:42.45 | 3:43.18 | 115695 | 132437
8 | 29:25.63 | 3:11.04 | 132438 | 146766
9 | 32:36.67 | 3:45.12 | 146767 | 163653
10 | 36:22.04 | 3:19.57 | 163654 | 178635
11 | 39:41.61 | 3:39.60 | 178636 | 195120
12 | 43:21.46 | 3:31.73 | 195121 | 211018
13 | 46:53.44 | 2:34.33 | 211019 | 222601
Range status and errors
Selected range
Filename I:\RRR\Blake – Together\Blake - Together.wav
Peak level 100.0 %
Range quality 100.0 %
Test CRC 46798612
Copy CRC 46798612
Copy OK
No errors occurred
AccurateRip summary
Track 1 accurately ripped (confidence 2) [8E52CC5E]
Track 2 accurately ripped (confidence 2) [BAE689E6]
Track 3 accurately ripped (confidence 2) [6ECB523E]
Track 4 accurately ripped (confidence 2) [D01FE906]
Track 5 accurately ripped (confidence 2) [4340F5C5]
Track 6 accurately ripped (confidence 2) [50A8CEA3]
Track 7 accurately ripped (confidence 2) [B9B59BE8]
Track 8 accurately ripped (confidence 2) [D2B3AE75]
Track 9 accurately ripped (confidence 2) [178ABB47]
Track 10 accurately ripped (confidence 2) [54B1D2B7]
Track 11 accurately ripped (confidence 2) [20D4723D]
Track 12 accurately ripped (confidence 2) [A0922A49]
Track 13 accurately ripped (confidence 2) [0B957526]
All tracks accurately ripped
End of status report



Показать сообщения:    

Текущее время: 03-Дек 12:39

Часовой пояс: UTC + 3


Вы не можете начинать темы
Вы не можете отвечать на сообщения
Вы не можете редактировать свои сообщения
Вы не можете удалять свои сообщения
Вы не можете голосовать в опросах
Вы не можете прикреплять файлы к сообщениям
Вы не можете скачивать файлы