(Pop, Classical) The Royal Philharmonic Orchestra - Mamma Mia - The Songs of Abba - 2008, FLAC (image+.cue), lossless


 

[Цитировать]

The Royal Philharmonic Orchestra - Mamma Mia - The Songs of Abba
Жанр: Pop, Classical
Год выпуска диска: 2008
Производитель диска: EU
Аудио кодек: FLAC
Тип рипа: image+.cue
Битрейт аудио: lossless
Продолжительность: 51:11
Лейбл, каталог #: RPO, 4301
EAN/UPC: 4013659043010
Трэклист:
01. Money Money Money [0:05:50.21]
02. Mamma Mia [0:02:49.78]
03. Chiquitita [0:02:53.24]
04. Dancing Queen [0:04:26.74]
05. S.O.S. [0:04:44.28]
06. Does Your Mother Know [0:06:40.22]
07. Knowing Me Knowing You [0:05:25.61]
08. I Have A Dream [0:04:37.28]
09. Eagle [0:04:09.13]
10. Medley: Gimme Gimme Gimme / Summer Night City [0:04:14.92]
11. Medley: Waterloo / Dancing Queen / Fernando / Name of The Game / Take A Chance On Me / Thank You For The Music [0:05:20.46]
Доп. информация:
Всегда любил RPO (The Royal Philharmonic Orchestra), ABBA и в последнее время часто слушаю разные исполнения популярного мюзикла "Mamma Mia".
Когда увидел все три вещи в одном диске - не мог противостоять. К мюзиклу скорее альбом не имеет отношения - только дизайн сделан под "Mamma Mia", а так мы слушаем качественную оркестровую обработку хитов группы ABBA.
Сканы 600dpi входят в раздачу.

Превью сканов задней обложки и диска в 150dpi

Отчет ЕАС (AccurateRip: Нет в базе данных)

Exact Audio Copy V0.99 prebeta 5 from 4. May 2009
EAC extraction logfile from 6. February 2010, 18:18
The Royal Philharmonic Orchestra / Mamma Mia - The Songs of Abba
Used drive : HL-DT-STDVDRAM_GSA-T20N Adapter: 0 ID: 0
Read mode : SecureUtilize accurate stream : YesDefeat audio cache : YesMake use of C2 pointers : No
Read offset correction : 667Overread into Lead-In and Lead-Out : NoFill up missing offset samples with silence : YesDelete leading and trailing silent blocks : NoNull samples used in CRC calculations : YesUsed interface : Installed external ASPI interface
Used output format : User Defined EncoderSelected bitrate : 768 kBit/sQuality : HighAdd ID3 tag : NoCommand line compressor : C:\Program Files\Exact Audio Copy\Flac\flac.exeAdditional command line options : -8 -V %s
TOC of the extracted CD
Track | Start | Length | Start sector | End sector --------------------------------------------------------- 1 | 0:00.00 | 5:50.16 | 0 | 26265 2 | 5:50.16 | 2:49.59 | 26266 | 38999 3 | 8:40.00 | 2:53.18 | 39000 | 51992 4 | 11:33.18 | 4:26.56 | 51993 | 71998 5 | 15:59.74 | 4:44.21 | 71999 | 93319 6 | 20:44.20 | 6:40.17 | 93320 | 123336 7 | 27:24.37 | 5:25.46 | 123337 | 147757 8 | 32:50.08 | 4:37.21 | 147758 | 168553 9 | 37:27.29 | 4:09.10 | 168554 | 187238 10 | 41:36.39 | 4:14.69 | 187239 | 206357 11 | 45:51.33 | 5:20.35 | 206358 | 230392
Range status and errors
Selected range
Filename C:\Music\The Royal Philharmonic Orchestra - Mamma Mia - The Songs of Abba.wav
Peak level 96.6 % Range quality 100.0 % Test CRC 74C0BE96 Copy CRC 74C0BE96 Copy OK
No errors occurred
AccurateRip summary
Track 1 not present in databaseTrack 2 not present in databaseTrack 3 not present in databaseTrack 4 not present in databaseTrack 5 not present in databaseTrack 6 not present in databaseTrack 7 not present in databaseTrack 8 not present in databaseTrack 9 not present in databaseTrack 10 not present in databaseTrack 11 not present in database
None of the tracks are present in the AccurateRip database
End of status report



Показать сообщения:    

Текущее время: 05-Дек 19:39

Часовой пояс: UTC + 3


Вы не можете начинать темы
Вы не можете отвечать на сообщения
Вы не можете редактировать свои сообщения
Вы не можете удалять свои сообщения
Вы не можете голосовать в опросах
Вы не можете прикреплять файлы к сообщениям
Вы не можете скачивать файлы