(Classical / Vocal) Rondo Veneziano - Scaramucce - 1982, FLAC (image+.cue), lossless


 

[Цитировать]

Rondo Veneziano - Scaramucce
Жанр: Classical / Vocal
Год выпуска диска: 1982
Производитель диска: Germany
Аудио кодек: FLAC
Тип рипа: image+.cue
Битрейт аудио: lossless
Продолжительность: 32 мин.
Трэклист:
1. Rondo Veneziano - Scaramucce (2:57)
2. Rondo Veneziano - Alla Corte Del Re (2:54)
3. Rondo Veneziano - Arabesco (3:35)
4. Rondo Veneziano - Laguna Incantata (3:56)
5. Rondo Veneziano - Campielli (3:11)
6. Rondo Veneziano - Pulcinella (2:18)
7. Rondo Veneziano - Oboe D'Amore (4:01)
8. Rondo Veneziano - Re Sole (2:40)
9. Rondo Veneziano - Riflessi Sull'Acqua (3:37)
10. Rondo Veneziano - Trasparenze (3:30)

Cover & Back

Отчёт EAC

Exact Audio Copy V0.99 prebeta 5 from 4. May 2009
Отчёт EAC об извлечении, выполненном 10. января 2010, 23:20
Rondт Veneziano / Scaramucce
Дисковод: Optiarc DVD RW AD-7200S Adapter: 2 ID: 0
Режим чтения : Достоверность
Использование точного потока : Да
Отключение кэша аудио : Да
Использование указателей C2 : Нет
Коррекция смещения при чтении : 48
Способность читать области Lead-in и Lead-out : Нет
Заполнение пропущенных сэмплов тишиной : Да
Удаление блоков с тишиной в начале и конце : Нет
При вычислениях CRC использовались нулевые сэмплы : Да
Интерфейс : Встроенный Win32-интерфейс для Win NT/2000
Выходной формат : Внутренние WAV-операции
Формат сэмплов : 44.100 Гц; 16 бит; стерео
TOC извлечённого CD
Трек | Старт | Длительность | Начальный сектор | Конечный сектор
---------------------------------------------------------------------
1 | 0:00.00 | 2:57.00 | 0 | 13274
2 | 2:57.00 | 2:54.37 | 13275 | 26361
3 | 5:51.37 | 3:35.00 | 26362 | 42486
4 | 9:26.37 | 3:56.38 | 42487 | 60224
5 | 13:23.00 | 3:11.00 | 60225 | 74549
6 | 16:34.00 | 2:18.62 | 74550 | 84961
7 | 18:52.62 | 4:01.13 | 84962 | 103049
8 | 22:54.00 | 2:40.37 | 103050 | 115086
9 | 25:34.37 | 3:37.00 | 115087 | 131361
10 | 29:11.37 | 3:30.38 | 131362 | 147149
Характеристики диапазона извлечения и сообщения об ошибках
Выбранный диапазон
Имя файла E:\МОИ РАЗДАЧИ\Rondт Veneziano - Scaramucce\Rondт Veneziano - Scaramucce.wav
Пиковый уровень 80.9 %
Качество диапазона 100.0 %
CRC копии 981A079A
Копирование... OK
Ошибок не произошло
AccurateRip: сводка
Трек 1 точное извлечение (доверие 2) [374AB5C5]
Трек 2 точное извлечение (доверие 2) [5480FB86]
Трек 3 точное извлечение (доверие 2) [E4BCA3E3]
Трек 4 точное извлечение (доверие 2) [966CE8B3]
Трек 5 точное извлечение (доверие 2) [C27992C1]
Трек 6 точное извлечение (доверие 2) [1B2DD8BA]
Трек 7 точное извлечение (доверие 2) [C026D0C7]
Трек 8 точное извлечение (доверие 2) [A30C3E86]
Трек 9 точное извлечение (доверие 2) [AEB4AB2C]
Трек 10 точное извлечение (доверие 2) [901DA2A8]
Все треки извлечены точно
Конец отчёта



Показать сообщения:    

Текущее время: 05-Дек 01:25

Часовой пояс: UTC + 3


Вы не можете начинать темы
Вы не можете отвечать на сообщения
Вы не можете редактировать свои сообщения
Вы не можете удалять свои сообщения
Вы не можете голосовать в опросах
Вы не можете прикреплять файлы к сообщениям
Вы не можете скачивать файлы