(Classical/Symphonic Rock) Royal Philharmonic Orchestra - Legends - Volume 1 - 2004, 3CD FLAC (image + .cue), lossless


 

[Цитировать]

Royal Philharmonic Orchestra
Legends

Triple Album

Жанр:Classical/Symphonic Rock
Год выпуска: 2004
Формат: FLAC(Image+Cue+Log)
Битрейт аудио: lossless
Продолжительность: 3CD

CD-1

Трэклист:
01. Angels (4:39)
02. Babylon (4:08)
03. With or Without You (5:14)
04. White Flag (3:37)
05. Help (3:28)
06. Dancing Queen (3:42)
07. Roll With It (4:07)
08. Hungarian Rhapsody No. 2 (10:34)
09. Die Fledermaus Overture (8:19)
10. Peperpertuum Mobile (3:30)
11. William Tell Overture - Finale (3:30)
12. On the Beautiful Blue Danube (9:54)
13. Russian and Ludmilla Overture (5:39)
14. Tritsch-Tratsch Polka (2:38)
15. The Marriage of Figaro - Overture (4:27)

Лог EAC

Exact Audio Copy V0.99 prebeta 4 from 23. January 2008
Отчёт EAC об извлечении, выполненном 29. декабря 2009, 23:54
Royal Philharmonic Orchestra / Legends - Volume 1
Дисковод: HL-DT-STDVDRAM GSA-H42L Adapter: 1 ID: 0
Режим чтения : Достоверность
Использование точного потока : Да
Отключение кэша аудио : Да
Использование указателей C2 : Нет
Коррекция смещения при чтении : 667
Способность читать области Lead-in и Lead-out : Нет
Заполнение пропущенных сэмплов тишиной : Да
Удаление блоков с тишиной в начале и конце : Нет
При вычислениях CRC использовались нулевые сэмплы : Да
Интерфейс : Встроенный Win32-интерфейс для Win NT/2000
Выходной формат : Пользовательский кодировщик
Выбранный битрейт : 768 kBit/s
Качество : Высокий
Добавление ID3-тэга : Нет
Утилита сжатия : C:\Program Files\Exact Audio Copy\FLAC\FLAC.EXE
Дополнительные параметры : -6 -V -T "ARTIST=%a" -T "TITLE=%t" -T "ALBUM=%g" -T "DATE=%y" -T "TRACKNUMBER=%n" -T "GENRE=%m" -T "COMMENT=%e" %s -o %d
TOC извлечённого CD
Трек | Старт | Длительность | Начальный сектор | Конечный сектор
---------------------------------------------------------------------
1 | 0:00.00 | 4:38.53 | 0 | 20902
2 | 4:38.53 | 4:07.72 | 20903 | 39499
3 | 8:46.50 | 5:13.70 | 39500 | 63044
4 | 14:00.45 | 3:37.32 | 63045 | 79351
5 | 17:38.02 | 3:28.17 | 79352 | 94968
6 | 21:06.19 | 3:42.09 | 94969 | 111627
7 | 24:48.28 | 4:06.38 | 111628 | 130115
8 | 28:54.66 | 10:33.62 | 130116 | 177652
9 | 39:28.53 | 8:19.08 | 177653 | 215085
10 | 47:47.61 | 3:30.25 | 215086 | 230860
11 | 51:18.11 | 3:30.13 | 230861 | 246623
12 | 54:48.24 | 9:53.53 | 246624 | 291151
13 | 64:42.02 | 5:38.63 | 291152 | 316564
14 | 70:20.65 | 2:38.04 | 316565 | 328418
15 | 72:58.69 | 4:27.05 | 328419 | 348448
Характеристики диапазона извлечения и сообщения об ошибках
Выбранный диапазон
Имя файла C:\Temp\Royal Philharmonic Orchestra - Legends - Volume 1.wav
Пиковый уровень 98.7 %
Качество диапазона 100.0 %
CRC теста 3D8F1B5C
CRC копии 3D8F1B5C
Копирование... OK
Ошибок не произошло
AccurateRip: сводка
Трек 1 точное извлечение (доверие 3) [7AB06684]
Трек 2 точное извлечение (доверие 3) [C106C1F9]
Трек 3 точное извлечение (доверие 3) [2F17BD69]
Трек 4 точное извлечение (доверие 3) [5B196EEC]
Трек 5 точное извлечение (доверие 3) [C7AEDE6D]
Трек 6 точное извлечение (доверие 2) [FCF5E370]
Трек 7 точное извлечение (доверие 3) [E5261C1F]
Трек 8 точное извлечение (доверие 3) [4B8D9E28]
Трек 9 точное извлечение (доверие 3) [F40D0384]
Трек 10 точное извлечение (доверие 3) [4854EA13]
Трек 11 точное извлечение (доверие 3) [098D5D1C]
Трек 12 точное извлечение (доверие 2) [C28FA813]
Трек 13 точное извлечение (доверие 3) [B7D3BDA2]
Трек 14 точное извлечение (доверие 3) [7C9C3C4E]
Трек 15 точное извлечение (доверие 3) [CB28CF96]
Все треки извлечены точно
Конец отчёта

CD-2

Трэклист:
01. Elvis Presley - Love Me Tender (3:27)
02. Madonna - Papa Don't Preach (3:41)
03. George Michael - Careless Whisper (4:53)
04. Eagles - Hotel California (5:48)
05. Brian Adams - Everything I Do - I Do It For You (4:05)
06. Queen We Are The Champions (4:09)
07. Simon and Garfunkel - Bridge Over Troubled Waters (4:53)
08. J Strauss II - Emperor Waltz (10:45)
09. Suppe - Morning, Noon and Night in Vienna (8:03)
10. Dvorak - Slavonic Dance No 8 (4:30)
11. Offenbach - Can-Can from Orpheus in the Underworld (2:12)
12. Handel - Arrival of the Queen of Sheba (3:12)
13. J.Strauss II - Egyptian March (3:48)
14. J.Strauss II - Die Fledermaus Czardas (4:33)
15. Faure - Pavane (6:24)

Лог EAC

Exact Audio Copy V0.99 prebeta 4 from 23. January 2008
Отчёт EAC об извлечении, выполненном 2. января 2010, 23:30
Royal Philharmonic Orchestra / Legends Vol. 2 (Daily Express Newspaper - UK) [Disk 2 of 3]
Дисковод: HL-DT-STDVDRAM GSA-H42L Adapter: 1 ID: 0
Режим чтения : Достоверность
Использование точного потока : Да
Отключение кэша аудио : Да
Использование указателей C2 : Нет
Коррекция смещения при чтении : 667
Способность читать области Lead-in и Lead-out : Нет
Заполнение пропущенных сэмплов тишиной : Да
Удаление блоков с тишиной в начале и конце : Нет
При вычислениях CRC использовались нулевые сэмплы : Да
Интерфейс : Встроенный Win32-интерфейс для Win NT/2000
Выходной формат : Пользовательский кодировщик
Выбранный битрейт : 896 kBit/s
Качество : Высокий
Добавление ID3-тэга : Нет
Утилита сжатия : C:\Program Files\Exact Audio Copy\FLAC\FLAC.EXE
Дополнительные параметры : -8 -V -T "ARTIST=%a" -T "TITLE=%t" -T "ALBUM=%g" -T "DATE=%y" -T "TRACKNUMBER=%n" -T "GENRE=%m" -T "COMMENT=%e" %s -o %d
TOC извлечённого CD
Трек | Старт | Длительность | Начальный сектор | Конечный сектор
---------------------------------------------------------------------
1 | 0:00.00 | 3:26.69 | 0 | 15518
2 | 3:26.69 | 3:40.52 | 15519 | 32070
3 | 7:07.46 | 4:53.06 | 32071 | 54051
4 | 12:00.52 | 5:48.02 | 54052 | 80153
5 | 17:48.54 | 4:04.42 | 80154 | 98495
6 | 21:53.21 | 4:09.20 | 98496 | 117190
7 | 26:02.41 | 4:52.57 | 117191 | 139147
8 | 30:55.23 | 10:44.42 | 139148 | 187489
9 | 41:39.65 | 8:02.54 | 187490 | 223693
10 | 49:42.44 | 4:29.57 | 223694 | 243925
11 | 54:12.26 | 2:12.04 | 243926 | 253829
12 | 56:24.30 | 3:11.72 | 253830 | 268226
13 | 59:36.27 | 3:47.38 | 268227 | 285289
14 | 63:23.65 | 4:33.35 | 285290 | 305799
15 | 67:57.25 | 6:24.28 | 305800 | 334627
Характеристики диапазона извлечения и сообщения об ошибках
Выбранный диапазон
Имя файла C:\Documents and Settings\Юрий\Мои документы\Моя музыка\My audio\Royal Philharmonic Orchestra - Legends Vol. 2 (Daily Express Newspaper - UK) [Disk 2 of 3].wav
Пиковый уровень 100.0 %
Качество диапазона 99.9 %
CRC теста F208EFA1
CRC копии F208EFA1
Копирование... OK
Ошибок не произошло
Конец отчёта

CD-3

Трэклист:
01. Beatles - The Long And Winding Road (3:09)
02. Oasis - Wonderwall (4:20)
03. Rolling Stones - Angie (4:18)
04. Red Hot Chilli Peppers - Under the Bridge (3:22)
05. Stevie Wonder - I Just Called To Say I Love You (3:33)
06. Whitney Houston - I Will Always Love You (4:30)
07. Bee Gees - How Deep Is Your Love (4:10)
08. J.Strauss II - Thunder & Lightning Polka (3:02)
09. Mussorgorsky - Night on the Bare Mountain (11:37)
10. J. Pachelbel - Canon in D (4:40)
11. Saint Saens - Danse Macabre (7:20)
12. Bach - Air on a G String (4:47)
13. J Strauss II - Im Krapfenwaldl Polka (3:54)
14. J Strauss II - Pizzicato Polka (2:46)
15. Von Suppe - Overture, Light Cavalry (6:45)

Лог EAC

Exact Audio Copy V0.99 prebeta 4 from 23. January 2008
Отчёт EAC об извлечении, выполненном 3. января 2010, 0:07
Royal Philharmonic Orchestra / Legends - Vol.. 3 (Daily Express Newspaper - UK) [Disk 3 of 3]
Дисковод: HL-DT-STDVDRAM GSA-H42L Adapter: 1 ID: 0
Режим чтения : Достоверность
Использование точного потока : Да
Отключение кэша аудио : Да
Использование указателей C2 : Нет
Коррекция смещения при чтении : 667
Способность читать области Lead-in и Lead-out : Нет
Заполнение пропущенных сэмплов тишиной : Да
Удаление блоков с тишиной в начале и конце : Нет
При вычислениях CRC использовались нулевые сэмплы : Да
Интерфейс : Встроенный Win32-интерфейс для Win NT/2000
Выходной формат : Пользовательский кодировщик
Выбранный битрейт : 896 kBit/s
Качество : Высокий
Добавление ID3-тэга : Нет
Утилита сжатия : C:\Program Files\Exact Audio Copy\FLAC\FLAC.EXE
Дополнительные параметры : -8 -V -T "ARTIST=%a" -T "TITLE=%t" -T "ALBUM=%g" -T "DATE=%y" -T "TRACKNUMBER=%n" -T "GENRE=%m" -T "COMMENT=%e" %s -o %d
TOC извлечённого CD
Трек | Старт | Длительность | Начальный сектор | Конечный сектор
---------------------------------------------------------------------
1 | 0:00.00 | 3:09.06 | 0 | 14180
2 | 3:09.06 | 4:19.46 | 14181 | 33651
3 | 7:28.52 | 4:17.64 | 33652 | 52990
4 | 11:46.41 | 3:21.71 | 52991 | 68136
5 | 15:08.37 | 3:32.67 | 68137 | 84103
6 | 18:41.29 | 4:29.43 | 84104 | 104321
7 | 23:10.72 | 4:09.57 | 104322 | 123053
8 | 27:20.54 | 3:01.46 | 123054 | 136674
9 | 30:22.25 | 11:36.71 | 136675 | 188945
10 | 41:59.21 | 4:40.36 | 188946 | 209981
11 | 46:39.57 | 7:20.00 | 209982 | 242981
12 | 53:59.57 | 4:46.70 | 242982 | 264501
13 | 58:46.52 | 3:54.33 | 264502 | 282084
14 | 62:41.10 | 2:45.67 | 282085 | 294526
15 | 65:27.02 | 6:44.38 | 294527 | 324864
Характеристики диапазона извлечения и сообщения об ошибках
Выбранный диапазон
Имя файла C:\Documents and Settings\Юрий\Мои документы\Моя музыка\My audio\Royal Philharmonic Orchestra - Legends - Vol.. 3 (Daily Express Newspaper - UK) [Disk 3 of 3].wav
Пиковый уровень 100.0 %
Качество диапазона 100.0 %
CRC теста 9C898D16
CRC копии 9C898D16
Копирование... OK
Ошибок не произошло
AccurateRip: сводка
Трек 1 точное извлечение (доверие 2) [4AF993D4]
Трек 2 точное извлечение (доверие 2) [388CB017]
Трек 3 точное извлечение (доверие 2) [68ADA189]
Трек 4 точное извлечение (доверие 2) [C19C28B0]
Трек 5 точное извлечение (доверие 2) [05D25A31]
Трек 6 точное извлечение (доверие 2) [8E0A0721]
Трек 7 точное извлечение (доверие 2) [0D17339F]
Трек 8 точное извлечение (доверие 2) [454D4DFF]
Трек 9 точное извлечение (доверие 2) [3AFE862A]
Трек 10 точное извлечение (доверие 2) [143FA3CB]
Трек 11 точное извлечение (доверие 2) [2E360202]
Трек 12 точное извлечение (доверие 2) [C8D0A592]
Трек 13 точное извлечение (доверие 2) [EAAAAC12]
Трек 14 точное извлечение (доверие 2) [BA1C9445]
Трек 15 точное извлечение (доверие 2) [8D93CE29]
Все треки извлечены точно
Конец отчёта



Показать сообщения:    

Текущее время: 11-Дек 09:05

Часовой пояс: UTC + 3


Вы не можете начинать темы
Вы не можете отвечать на сообщения
Вы не можете редактировать свои сообщения
Вы не можете удалять свои сообщения
Вы не можете голосовать в опросах
Вы не можете прикреплять файлы к сообщениям
Вы не можете скачивать файлы