(Classical) Katherine Jenkins - The Ultimate Collection - 2009, FLAC (image+.cue), lossless


 

[Цитировать]

The Ultimate CollectionKATHERINE JENKINS
Жанр: Classical
Год выпуска диска: 2009
Аудио кодек: FLAC
Тип рипа: image+.cue
Битрейт аудио: lossless
Продолжительность: 1:08:36
Трэклист:
01 Time To Say Goodbye
02 Hallelujah
03 I Will Always Love You
04 I Vow To Thee My Country
05 (Everything I Do) I Do It For You
06 Nella Fantasia
07 Hymn To The Fallen
08 The Flower Duet (featuring Kiri Te Kanawa)
09 Pie Jesu
10 Calon Lan
11 Caruso
12 Vide Cor Meum
13 O Mio Babbino Caro
14 Music of the Night

Bonus Tracks
15 I Could Have Danced All Night
16 I've Dreamed Of You
17 Don't Cry For Me Argentina

EAC log

Exact Audio Copy V0.99 prebeta 5 from 4. May 2009
Отчёт EAC об извлечении, выполненном 29. декабря 2009, 0:09
Katherine Jenkins / The Ultimate Collection
Дисковод: Optiarc DVD RW AD-5200S Adapter: 1 ID: 1
Режим чтения : ДостоверностьИспользование точного потока : ДаОтключение кэша аудио : ДаИспользование указателей C2 : Нет
Коррекция смещения при чтении : 48Способность читать области Lead-in и Lead-out : НетЗаполнение пропущенных сэмплов тишиной : ДаУдаление блоков с тишиной в начале и конце : НетПри вычислениях CRC использовались нулевые сэмплы : НетИнтерфейс : Установленный внешний ASPI-интерфейс
Выходной формат : Внутренние WAV-операцииФормат сэмплов : 44.100 Гц; 16 бит; стерео
TOC извлечённого CD
Трек | Старт | Длительность | Начальный сектор | Конечный сектор---------------------------------------------------------------------1 | 0:00.00 | 3:46.36 | 0 | 169852 | 3:46.36 | 4:47.16 | 16986 | 385263 | 8:33.52 | 4:20.62 | 38527 | 580884 | 12:54.39 | 3:07.63 | 58089 | 721765 | 16:02.27 | 4:15.47 | 72177 | 913486 | 20:17.74 | 5:08.56 | 91349 | 1145047 | 25:26.55 | 4:30.66 | 114505 | 1348208 | 29:57.46 | 3:50.26 | 134821 | 1520969 | 33:47.72 | 3:38.44 | 152097 | 16849010 | 37:26.41 | 2:27.35 | 168491 | 17955011 | 39:54.01 | 3:51.51 | 179551 | 19692612 | 43:45.52 | 4:01.03 | 196927 | 21500413 | 47:46.55 | 2:37.25 | 215005 | 22680414 | 50:24.05 | 5:46.30 | 226805 | 25278415 | 56:10.35 | 2:33.38 | 252785 | 26429716 | 58:43.73 | 3:36.30 | 264298 | 28052717 | 62:20.28 | 6:16.44 | 280528 | 308771
Характеристики диапазона извлечения и сообщения об ошибках
Выбранный диапазон
Имя файла G:\R_MUSIC\Katherine Jenkins [2009] The Ultimate Collection\Katherine Jenkins - The Ultimate Collection.wav
Пиковый уровень 100.0 %Качество диапазона 100.0 %CRC копии E987FBB6Копирование... OK
Ошибок не произошло
AccurateRip: сводка
Трек 1 точное извлечение (доверие 1) [1F530C4A]Трек 2 точное извлечение (доверие 1) [F61AEF0E]Трек 3 точное извлечение (доверие 1) [C377D485]Трек 4 точное извлечение (доверие 1) [0B98477E]Трек 5 точное извлечение (доверие 1) [9E238755]Трек 6 точное извлечение (доверие 1) [D81FD259]Трек 7 точное извлечение (доверие 1) [1A7D5035]Трек 8 точное извлечение (доверие 1) [DA866FB3]Трек 9 точное извлечение (доверие 1) [E9175994]Трек 10 точное извлечение (доверие 1) [DBC4DB8A]Трек 11 точное извлечение (доверие 1) [0AF84FCC]Трек 12 точное извлечение (доверие 1) [5E3507A5]Трек 13 точное извлечение (доверие 1) [D7029A39]Трек 14 точное извлечение (доверие 1) [EBE136B8]Трек 15 точное извлечение (доверие 1) [723E816A]Трек 16 точное извлечение (доверие 1) [38EA92B9]Трек 17 точное извлечение (доверие 1) [11405B1F]
Все треки извлечены точно
Конец отчёта

Разворот буклета

Доп. информация: скачано из нета. Релиз от @TL@NT.



Показать сообщения:    

Текущее время: 11-Дек 01:26

Часовой пояс: UTC + 3


Вы не можете начинать темы
Вы не можете отвечать на сообщения
Вы не можете редактировать свои сообщения
Вы не можете удалять свои сообщения
Вы не можете голосовать в опросах
Вы не можете прикреплять файлы к сообщениям
Вы не можете скачивать файлы