(Pop, Classical Crossover) Il Divo - An Evening With Il Divo: Live In Barcelona - 2009, FLAC (image+.cue), lossless


 

[Цитировать]

Il Divo - An Evening With Il Divo: Live In Barcelona- Жанр: Pop, Classical Crossover
Год выпуска диска: 2009
Производитель диска: UK
Аудио кодек: FLAC
Тип рипа: image+.cue
Битрейт аудио: lossless
Продолжительность: 0:41:52
Источник: @TL@NT
Трэклист:
01. (5:02) Unbreak My Heart (Regresa A Mi)
02. (3:41) Unchained Melody (Senza Catene)
03. (4:54) La Promessa
04. (4:46) Adagio
05. (3:28) Somewhere
06. (4:36) Nights In White Satin (Notte Di Luce)
07. (3:39) Without You (Desde El Dia Que Te Fuiste)
08. (3:18) Hallelujah (Aleluya)
09. (3:58) Amazing Grace
10. (4:30) My Way (A Mi Manera)

Лог EAC

Exact Audio Copy V0.99 prebeta 5 from 4. May 2009
Отчёт EAC об извлечении, выполненном 25. декабря 2009, 21:40
IL DIVO / An Evening With IL DIVO
Дисковод: Optiarc DVD RW AD-5200S Adapter: 1 ID: 1
Режим чтения : ДостоверностьИспользование точного потока : ДаОтключение кэша аудио : ДаИспользование указателей C2 : Нет
Коррекция смещения при чтении : 48Способность читать области Lead-in и Lead-out : НетЗаполнение пропущенных сэмплов тишиной : ДаУдаление блоков с тишиной в начале и конце : НетПри вычислениях CRC использовались нулевые сэмплы : НетИнтерфейс : Установленный внешний ASPI-интерфейс
Выходной формат : Внутренние WAV-операцииФормат сэмплов : 44.100 Гц; 16 бит; стерео
TOC извлечённого CD
Трек | Старт | Длительность | Начальный сектор | Конечный сектор---------------------------------------------------------------------1 | 0:00.00 | 5:01.38 | 0 | 226122 | 5:01.38 | 3:41.17 | 22613 | 392043 | 8:42.55 | 4:54.28 | 39205 | 612824 | 13:37.08 | 4:46.17 | 61283 | 827495 | 18:23.25 | 3:28.14 | 82750 | 983636 | 21:51.39 | 4:35.70 | 98364 | 1190587 | 26:27.34 | 3:39.31 | 119059 | 1355148 | 30:06.65 | 3:18.33 | 135515 | 1503979 | 33:25.23 | 3:57.69 | 150398 | 16824110 | 37:23.17 | 4:29.40 | 168242 | 188456
Характеристики диапазона извлечения и сообщения об ошибках
Выбранный диапазон
Имя файла G:\R_MUSIC\IL DIVO [2009] An Evening With IL DIVO\IL DIVO - An Evening With IL DIVO.wav
Пиковый уровень 100.0 %Качество диапазона 100.0 %CRC копии B563CD35Копирование... OK
Ошибок не произошло
AccurateRip: сводка
Трек 1 нет в базе данныхТрек 2 нет в базе данныхТрек 3 нет в базе данныхТрек 4 нет в базе данныхТрек 5 нет в базе данныхТрек 6 нет в базе данныхТрек 7 нет в базе данныхТрек 8 нет в базе данныхТрек 9 нет в базе данныхТрек 10 нет в базе данных
Ни одного трека нет в базе AccurateRip
Конец отчёта

Спектральный анализ




Показать сообщения:    

Текущее время: 06-Дек 17:11

Часовой пояс: UTC + 3


Вы не можете начинать темы
Вы не можете отвечать на сообщения
Вы не можете редактировать свои сообщения
Вы не можете удалять свои сообщения
Вы не можете голосовать в опросах
Вы не можете прикреплять файлы к сообщениям
Вы не можете скачивать файлы