(Classical / Vocal) Full Moon Dreams - Classic Fantasy (Локтионова, Гречанинов, Луции, Шопен, Римский-Корсаков, Годар, Шуман, Бах, Гуно, Альбинони, Каччини, Рахманинов, Шуберт, Григ) - 1994, FLAC (image+.cue), lossless


 

[Цитировать]

VA Full Moon Dreams - Classic Fantasy
Жанр: Classical / Vocal
Год выпуска диска: 1994
Производитель диска: Россия Челябинск
Аудио кодек: FLAC
Тип рипа: image+.cue
Битрейт аудио: lossless
Продолжительность: 63 мин.
Трэклист:
1. Full Moon Dreams - Романс Без Слов (3:33)
2. Full Moon Dreams - Жалоба (4:17)
3. Full Moon Dreams - Ave Maria (3:55)
4. Full Moon Dreams - Прелюдия #4 (2:07)
5. Full Moon Dreams - Восточный Романс (2:25)
6. Full Moon Dreams - Нимфа (3:31)
7. Full Moon Dreams - Первая Печаль (2:02)
8. Full Moon Dreams - Первая Утрата (2:09)
9. Full Moon Dreams - Ave Maria (и.С. Бах - Ш. Гуно) (2:42)
10. Full Moon Dreams - Адажио (1) (3:57)
11. Full Moon Dreams - 1. Прелюдия 2. Фуга #X (3:45)
12. Full Moon Dreams - Ave Maria (Д. Каччини) (5:32)
13. Full Moon Dreams - Увял Цветок (2:56)
14. Full Moon Dreams - Маленькая Ночная Серенада (3:13)
15. Full Moon Dreams - Редеет Облаков Летучаяя Гряда... (4:33)
16. Full Moon Dreams - Адажио (2) (3:22)
17. Full Moon Dreams - Песня Сольвейг (3:58)
18. Full Moon Dreams - Менуэт (2:21)
19. Full Moon Dreams - Сны Полнолучния (2:38)

Cover & Back


Отчёт EAC

Exact Audio Copy V0.99 prebeta 5 from 4. May 2009
Отчёт EAC об извлечении, выполненном 2. декабря 2009, 15:52
Full Moon Dreams / Classic Fantasy
Дисковод: Optiarc DVD RW AD-7200S Adapter: 3 ID: 0
Режим чтения : Достоверность
Использование точного потока : Да
Отключение кэша аудио : Да
Использование указателей C2 : Нет
Коррекция смещения при чтении : 48
Способность читать области Lead-in и Lead-out : Нет
Заполнение пропущенных сэмплов тишиной : Да
Удаление блоков с тишиной в начале и конце : Нет
При вычислениях CRC использовались нулевые сэмплы : Да
Интерфейс : Встроенный Win32-интерфейс для Win NT/2000
Выходной формат : Внутренние WAV-операции
Формат сэмплов : 44.100 Гц; 16 бит; стерео
TOC извлечённого CD
Трек | Старт | Длительность | Начальный сектор | Конечный сектор
---------------------------------------------------------------------
1 | 0:00.22 | 3:33.43 | 22 | 16039
2 | 3:33.65 | 4:17.60 | 16040 | 35374
3 | 7:51.50 | 3:55.30 | 35375 | 53029
4 | 11:47.05 | 2:07.72 | 53030 | 62626
5 | 13:55.02 | 2:25.65 | 62627 | 73566
6 | 16:20.67 | 3:31.43 | 73567 | 89434
7 | 19:52.35 | 2:02.60 | 89435 | 98644
8 | 21:55.20 | 2:09.50 | 98645 | 108369
9 | 24:04.70 | 2:42.20 | 108370 | 120539
10 | 26:47.15 | 3:57.62 | 120540 | 138376
11 | 30:45.02 | 3:45.53 | 138377 | 155304
12 | 34:30.55 | 5:32.27 | 155305 | 180231
13 | 40:03.07 | 2:56.08 | 180232 | 193439
14 | 42:59.15 | 3:13.47 | 193440 | 207961
15 | 46:12.62 | 4:33.25 | 207962 | 228461
16 | 50:46.12 | 3:22.08 | 228462 | 243619
17 | 54:08.20 | 3:58.07 | 243620 | 261476
18 | 58:06.27 | 2:21.73 | 261477 | 272124
19 | 60:28.25 | 2:38.40 | 272125 | 284014
Характеристики диапазона извлечения и сообщения об ошибках
Выбранный диапазон
Имя файла E:\Full Moon Dreams - Classic Fantasy\Full Moon Dreams - Classic Fantasy.wav
Пиковый уровень 100.0 %
Качество диапазона 99.9 %
CRC копии 822133DC
Копирование... OK
Ошибок не произошло
AccurateRip: сводка
Трек 1 нет в базе данных
Трек 2 нет в базе данных
Трек 3 нет в базе данных
Трек 4 нет в базе данных
Трек 5 нет в базе данных
Трек 6 нет в базе данных
Трек 7 нет в базе данных
Трек 8 нет в базе данных
Трек 9 нет в базе данных
Трек 10 нет в базе данных
Трек 11 нет в базе данных
Трек 12 нет в базе данных
Трек 13 нет в базе данных
Трек 14 нет в базе данных
Трек 15 нет в базе данных
Трек 16 нет в базе данных
Трек 17 нет в базе данных
Трек 18 нет в базе данных
Трек 19 нет в базе данных
Ни одного трека нет в базе AccurateRip
Конец отчёта



Показать сообщения:    

Текущее время: 11-Дек 12:58

Часовой пояс: UTC + 3


Вы не можете начинать темы
Вы не можете отвечать на сообщения
Вы не можете редактировать свои сообщения
Вы не можете удалять свои сообщения
Вы не можете голосовать в опросах
Вы не можете прикреплять файлы к сообщениям
Вы не можете скачивать файлы