(Классика в Современной Обработке) Rondo Veneziano - Rondo Veneziano - 1980, APE (image+.cue), lossless


 

[Цитировать]

Rondo Veneziano - Rondo Veneziano
Жанр: Классика в Современной Обработке
Год выпуска диска: 1980
Производитель диска: Germany (BMG Music)
Аудио кодек: APE
Тип рипа: image+.cue
Битрейт аудио: lossless
Продолжительность: 34:54
Трэклист:
1.Rondo Veneziano
2.Tramonto Sulla Laguna
3.San Marco
4.Allegro Veneziano
5.Giochi D'acqua
6.Colombina
7.Notte Amalfitana
8.Andante Veneziano
9.Danza Mediterranea

Отчет EAC

Exact Audio Copy V0.99 prebeta 4 from 23. January 2008
Отчёт EAC об извлечении, выполненном 10. декабря 2009, 15:27
Rondo Veneziano / Rondo Veneziano
Дисковод: _NEC DVD_RW ND-1300A Adapter: 4 ID: 0
Режим чтения : Достоверность
Использование точного потока : Да
Отключение кэша аудио : Да
Использование указателей C2 : Нет
Коррекция смещения при чтении : 48
Способность читать области Lead-in и Lead-out : Нет
Заполнение пропущенных сэмплов тишиной : Да
Удаление блоков с тишиной в начале и конце : Нет
При вычислениях CRC использовались нулевые сэмплы : Да
Интерфейс : Установленный внешний ASPI-интерфейс
Выходной формат : Внутренние WAV-операции
Формат сэмплов : 44.100 Гц; 16 бит; стерео
TOC извлечённого CD
Трек | Старт | Длительность | Начальный сектор | Конечный сектор
---------------------------------------------------------------------
1 | 0:00.00 | 3:29.50 | 0 | 15724
2 | 3:29.50 | 3:40.60 | 15725 | 32284
3 | 7:10.35 | 3:23.35 | 32285 | 47544
4 | 10:33.70 | 3:11.17 | 47545 | 61886
5 | 13:45.12 | 3:45.48 | 61887 | 78809
6 | 17:30.60 | 3:07.15 | 78810 | 92849
7 | 20:38.00 | 4:52.22 | 92850 | 114771
8 | 25:30.22 | 4:19.13 | 114772 | 134209
9 | 29:49.35 | 5:04.62 | 134210 | 157071
Характеристики диапазона извлечения и сообщения об ошибках
Выбранный диапазон
Имя файла G:\Раздачи 2\rondo 1980\Rondo Veneziano - Rondo Veneziano.wav
Пиковый уровень 83.9 %
Качество диапазона 100.0 %
CRC копии 0BC7FE8F
Копирование... OK
Ошибок не произошло
AccurateRip: сводка
Трек 1 точность не определена (достоверность 4) [660F4FBA], AccurateRip вернул [BD812B0C]
Трек 2 точность не определена (достоверность 4) [7DD2A260], AccurateRip вернул [8C31617A]
Трек 3 точность не определена (достоверность 4) [88B288C3], AccurateRip вернул [CEAAF1D3]
Трек 4 точность не определена (достоверность 4) [CA480126], AccurateRip вернул [5D66BFC0]
Трек 5 точность не определена (достоверность 4) [107FFF81], AccurateRip вернул [DA233D6B]
Трек 6 точность не определена (достоверность 4) [419A3186], AccurateRip вернул [849C2572]
Трек 7 точность не определена (достоверность 4) [8BBB2823], AccurateRip вернул [73B96167]
Трек 8 точность не определена (достоверность 4) [48C4A38C], AccurateRip вернул [836D9368]
Трек 9 точность не определена (достоверность 4) [9CFD0341], AccurateRip вернул [BC4E8199]
Ни один трек не прошёл проверки на точность
В вашей базе может быть иной вариант штамповки диска
Конец отчёта

Covers




Показать сообщения:    

Текущее время: 05-Дек 21:40

Часовой пояс: UTC + 3


Вы не можете начинать темы
Вы не можете отвечать на сообщения
Вы не можете редактировать свои сообщения
Вы не можете удалять свои сообщения
Вы не можете голосовать в опросах
Вы не можете прикреплять файлы к сообщениям
Вы не можете скачивать файлы