(Traditional Electronic) Wendy Carlos - By Request (1975) (2003, ESD 81692) - FLAC (tracks+.cue), lossless


 

[Цитировать]

(Traditional Electronic) Wendy Carlos - By Request (1975) (2003, ESD 81692) [FLAC]- Жанр: Traditional Electronic
Год выпуска диска: 2003
Производитель диска: USA ("East Side Digital")
Аудио кодек: FLAC
Тип рипа: tracks+.cue
Битрейт аудио: lossless
Продолжительность: 00:45:54
Трэклист:
1. Russian Dance - 1:04
2. Dance of the Sugar-Plum Fairy - 2:05
3. Dance of the Reed-Pipes - 2:14
4. Dialogues for Piano and Two Loudspeakers - 4:00
5. Episodes for Piano and Electronic Sound - 5:49
6. Geodesic Dance (Electronic Etude) - 3:22
7. Brandenburg Concerto No. 2 in F Major (1st Movement) - 5:48
8. "Little" Fugue in G Minor - 3:44
9. What's New, Pussycat? - 2:05
10. Eleanor Rigby - 2:07
11. Wedding March - 1:13
12. Pompous Circumstances - 12:00
Доп. информация:
Переиздание диска 1975 года.
Этот альбом был запрещён в UK, из-за трека Pompous Circumstances - сочли, что такое трактование (трек 12) музыки Elgar'а недопустимо. Подробнее об этом на страницах 13-18 буклета.

Что включено в раздачу

В раздачу также включены сканы этикетки диска, всех страниц буклета и вставки в коробку в разрешении 300dpi. Информация с data-трека "Enhanced CD", содержащего гипертекст ("snapshot" сайта автора www.wendycarlos.com на октябрь 2003 года),находится в папке "Extra".

Лог EAC

Exact Audio Copy V0.99 prebeta 4 from 23. January 2008
EAC extraction logfile from 4. November 2009, 12:44
Wendy Carlos / By Request
Used drive : TEAC CD-W58E Adapter: 3 ID: 1
Read mode : SecureUtilize accurate stream : YesDefeat audio cache : YesMake use of C2 pointers : No
Read offset correction : 685Overread into Lead-In and Lead-Out : NoFill up missing offset samples with silence : YesDelete leading and trailing silent blocks : NoNull samples used in CRC calculations : YesUsed interface : Native Win32 interface for Win NT & 2000Gap handling : Appended to previous track
Used output format : Internal WAV RoutinesSample format : 44.100 Hz; 16 Bit; Stereo
TOC of the extracted CD
Track | Start | Length | Start sector | End sector --------------------------------------------------------- 1 | 0:00.00 | 1:04.05 | 0 | 4804 2 | 1:04.05 | 2:05.18 | 4805 | 14197 3 | 3:09.23 | 2:16.71 | 14198 | 24468 4 | 5:26.19 | 4:02.63 | 24469 | 42681 5 | 9:29.07 | 5:52.26 | 42682 | 69107 6 | 15:21.33 | 3:25.01 | 69108 | 84483 7 | 18:46.34 | 5:51.20 | 84484 | 110828 8 | 24:37.54 | 3:47.15 | 110829 | 127868 9 | 28:24.69 | 2:07.09 | 127869 | 137402 10 | 30:32.03 | 2:08.69 | 137403 | 147071 11 | 32:40.72 | 1:16.56 | 147072 | 152827 12 | 33:57.53 | 12:00.46 | 152828 | 206873 13 | 48:30.24 | 9:18.66 | 218274 | 260189
Track 1
Filename I:\Loseless\Wendy Carlos - By Request (2003) (ESD 81692) [FLAC]\01 - Russian Dance.wav
Pre-gap length 0:00:02.00
Peak level 99.1 % Track quality 99.8 % Test CRC E6EFE58D Copy CRC E6EFE58D Accurately ripped (confidence 6) [85D40D03] Copy OK
Track 2
Filename I:\Loseless\Wendy Carlos - By Request (2003) (ESD 81692) [FLAC]\02 - Dance of the Sugar-Plum Fairy.wav
Peak level 58.7 % Track quality 100.0 % Test CRC 75CE5E0B Copy CRC 75CE5E0B Accurately ripped (confidence 6) [5DBF666E] Copy OK
Track 3
Filename I:\Loseless\Wendy Carlos - By Request (2003) (ESD 81692) [FLAC]\03 - Dance of the Reed-Pipes.wav
Peak level 100.0 % Track quality 100.0 % Test CRC 0996EA69 Copy CRC 0996EA69 Accurately ripped (confidence 6) [B962797E] Copy OK
Track 4
Filename I:\Loseless\Wendy Carlos - By Request (2003) (ESD 81692) [FLAC]\04 - Dialogues for Piano and Two Loudspeakers.wav
Pre-gap length 0:00:03.00
Peak level 64.5 % Track quality 100.0 % Test CRC 7A553CF9 Copy CRC 7A553CF9 Accurately ripped (confidence 6) [528DD04F] Copy OK
Track 5
Filename I:\Loseless\Wendy Carlos - By Request (2003) (ESD 81692) [FLAC]\05 - Episodes for Piano and Electronic Sound.wav
Pre-gap length 0:00:02.20
Peak level 96.0 % Track quality 100.0 % Test CRC 68D284AA Copy CRC 68D284AA Accurately ripped (confidence 6) [8445CF4E] Copy OK
Track 6
Filename I:\Loseless\Wendy Carlos - By Request (2003) (ESD 81692) [FLAC]\06 - Geodesic Dance (Electronic Etude).wav
Pre-gap length 0:00:03.00
Peak level 97.7 % Track quality 100.0 % Test CRC 82B58833 Copy CRC 82B58833 Accurately ripped (confidence 6) [540B5735] Copy OK
Track 7
Filename I:\Loseless\Wendy Carlos - By Request (2003) (ESD 81692) [FLAC]\07 - Brandenburg Concerto No. 2 in F Major (1st Movement).wav
Pre-gap length 0:00:03.00
Peak level 83.6 % Track quality 100.0 % Test CRC 7AC77039 Copy CRC 7AC77039 Accurately ripped (confidence 6) [6F924776] Copy OK
Track 8
Filename I:\Loseless\Wendy Carlos - By Request (2003) (ESD 81692) [FLAC]\08 - 'Little' Fugue in G Minor.wav
Pre-gap length 0:00:03.00
Peak level 72.2 % Track quality 100.0 % Test CRC 5F3536AA Copy CRC 5F3536AA Accurately ripped (confidence 6) [B2F29C16] Copy OK
Track 9
Filename I:\Loseless\Wendy Carlos - By Request (2003) (ESD 81692) [FLAC]\09 - What's New, Pussycat .wav
Pre-gap length 0:00:03.20
Peak level 92.5 % Track quality 100.0 % Test CRC D7DA5249 Copy CRC D7DA5249 Accurately ripped (confidence 6) [36C9D69D] Copy OK
Track 10
Filename I:\Loseless\Wendy Carlos - By Request (2003) (ESD 81692) [FLAC]\10 - Eleanor Rigby.wav
Pre-gap length 0:00:02.30
Peak level 71.0 % Track quality 100.0 % Test CRC FBFFC741 Copy CRC FBFFC741 Accurately ripped (confidence 6) [C87C6DA5] Copy OK
Track 11
Filename I:\Loseless\Wendy Carlos - By Request (2003) (ESD 81692) [FLAC]\11 - Wedding March.wav
Pre-gap length 0:00:02.30
Peak level 61.3 % Track quality 100.0 % Test CRC 7F878AD3 Copy CRC 7F878AD3 Accurately ripped (confidence 6) [F7BF5F97] Copy OK
Track 12
Filename I:\Loseless\Wendy Carlos - By Request (2003) (ESD 81692) [FLAC]\12 - Pompous Circumstances.wav
Pre-gap length 0:00:03.30
Peak level 100.0 % Track quality 99.9 % Test CRC B81CF86C Copy CRC B81CF86C Accurately ripped (confidence 6) [64CA3358] Copy OK
All tracks accurately ripped
No errors occurred
End of status report



Показать сообщения:    

Текущее время: 07-Дек 00:48

Часовой пояс: UTC + 3


Вы не можете начинать темы
Вы не можете отвечать на сообщения
Вы не можете редактировать свои сообщения
Вы не можете удалять свои сообщения
Вы не можете голосовать в опросах
Вы не можете прикреплять файлы к сообщениям
Вы не можете скачивать файлы