(Классика в современной обработке) Rondo Veneziano - Attimi Di Magia - 1999, APE (image+.cue), lossless


 

[Цитировать]

Rondo Veneziano - Attimi Di Magia
Жанр: Классика в современной обработке
Год выпуска диска: 1999
Производитель диска: Germany (KOCH Records GmbH)
Аудио кодек: APE
Тип рипа: image+.cue
Битрейт аудио: lossless
Продолжительность: 52:26
Трэклист:
1.Carrousel
2.Musica...Fantasia
3.Damsels
4.Perle D'Oriente
5.Attimi Di Magia
6.Pulcinella
7.Preludio All'Amore
8.Bettina
9.Campiello In Festa
10.Misteriosa Venezia
11.Prime Luci Sulla Laguna
12.Floralis
13.Casanova
14.Gondole
15.Mosaico
16.Addio A Venezia
Доп. информация: На диске представлены популярные композиции Rondo Veneziano в специальной аранжировке : сольные мелодии исполняет Ж П Ревербери на фортепиано.

Отчет EAC

Exact Audio Copy V0.99 prebeta 4 from 23. January 2008
Отчёт EAC об извлечении, выполненном 27. ноября 2009, 20:46
Rondo' Veneziano / Attimi Di Magia - Magische Augenblicke
Дисковод: _NEC DVD_RW ND-1300A Adapter: 4 ID: 0
Режим чтения : Достоверность
Использование точного потока : Да
Отключение кэша аудио : Да
Использование указателей C2 : Нет
Коррекция смещения при чтении : 48
Способность читать области Lead-in и Lead-out : Нет
Заполнение пропущенных сэмплов тишиной : Да
Удаление блоков с тишиной в начале и конце : Нет
При вычислениях CRC использовались нулевые сэмплы : Да
Интерфейс : Установленный внешний ASPI-интерфейс
Выходной формат : Внутренние WAV-операции
Формат сэмплов : 44.100 Гц; 16 бит; стерео
TOC извлечённого CD
Трек | Старт | Длительность | Начальный сектор | Конечный сектор
---------------------------------------------------------------------
1 | 0:00.00 | 3:06.25 | 0 | 13974
2 | 3:06.25 | 2:51.65 | 13975 | 26864
3 | 5:58.15 | 3:18.10 | 26865 | 41724
4 | 9:16.25 | 2:47.00 | 41725 | 54249
5 | 12:03.25 | 2:59.60 | 54250 | 67734
6 | 15:03.10 | 5:04.67 | 67735 | 90601
7 | 20:08.02 | 3:02.68 | 90602 | 104319
8 | 23:10.70 | 2:48.00 | 104320 | 116919
9 | 25:58.70 | 4:09.57 | 116920 | 135651
10 | 30:08.52 | 3:28.50 | 135652 | 151301
11 | 33:37.27 | 3:07.23 | 151302 | 165349
12 | 36:44.50 | 2:44.00 | 165350 | 177649
13 | 39:28.50 | 3:00.30 | 177650 | 191179
14 | 42:29.05 | 4:56.65 | 191180 | 213444
15 | 47:25.70 | 3:13.32 | 213445 | 227951
16 | 50:39.27 | 1:46.60 | 227952 | 235961
Характеристики диапазона извлечения и сообщения об ошибках
Выбранный диапазон
Имя файла G:\Раздачи 2\attimi di magia\Rondo' Veneziano - Attimi Di Magia - Magische Augenblicke.wav
Пиковый уровень 99.2 %
Качество диапазона 100.0 %
CRC копии D8AED281
Копирование... OK
Ошибок не произошло
AccurateRip: сводка
Трек 1 точное извлечение (доверие 2) [C46F8810]
Трек 2 точное извлечение (доверие 2) [9C2E15B6]
Трек 3 точное извлечение (доверие 2) [F7B875BA]
Трек 4 точное извлечение (доверие 2) [47DE1B33]
Трек 5 точное извлечение (доверие 2) [9FCE5DD2]
Трек 6 точное извлечение (доверие 2) [0248E7B0]
Трек 7 точное извлечение (доверие 2) [BE93E106]
Трек 8 точное извлечение (доверие 2) [239021F0]
Трек 9 точное извлечение (доверие 2) [6789B017]
Трек 10 точное извлечение (доверие 2) [2EFD18B6]
Трек 11 точное извлечение (доверие 2) [F96A481F]
Трек 12 точное извлечение (доверие 2) [DD9780D7]
Трек 13 точное извлечение (доверие 2) [E3B8921C]
Трек 14 точное извлечение (доверие 2) [32D9F623]
Трек 15 точное извлечение (доверие 2) [A7793BA9]
Трек 16 точное извлечение (доверие 2) [C22C7314]
Все треки извлечены точно
Конец отчёта



Показать сообщения:    

Текущее время: 03-Дек 05:23

Часовой пояс: UTC + 3


Вы не можете начинать темы
Вы не можете отвечать на сообщения
Вы не можете редактировать свои сообщения
Вы не можете удалять свои сообщения
Вы не можете голосовать в опросах
Вы не можете прикреплять файлы к сообщениям
Вы не можете скачивать файлы