(Opera/Rock/Pop/Concert) Pavarotti & Friends - For The Children Of Liberia - 1998, FLAC (image+.cue), lossless


 

[Цитировать]

Pavarotti & Friends - For The Children Of Liberia
Жанр: Opera/Rock/Pop/Concert
Год выпуска диска: 1998
Производитель диска: Germany
Аудио кодек: FLAC
Тип рипа: image+.cue
Битрейт аудио: lossless
Продолжительность: 1:12:54
Трэклист:
1. Let It Rain (Luciano Pavarotti & Bon Jovi)
2. Stop (Spice Girls)
3. How Do I Live (Trisha Yearwood)
4. I Hate You Then I Love You (Luciano Pavarotti & Celine Dion)
5. Higher Ground (Stevie Wonder)
6. 'O Surdato 'Nnammurato (Luciano Pavarotti & Corrs)
7. Se Bastasse Una Canzone (Luciano Pavarotti & Eros Ramazzotti)
8. Betcha Never (Vanessa Williams)
9. Viva Forever (Luciano Pavarotti & Spice Girls)
10. Va, Pensiero (Luciano Pavarotti & Zucchero)
11. Napule И (Luciano Pavarotti & Pino Daniele)
12. Place Pour Moi (Florent Pagny)
13. Non Ti Scordar Di Me (Luciano Pavarotti & Vanessa Williams)
14. Tonight (Luciano Pavarotti & Natalie Cole)
15. Dreams (Corrs)
16. Adeste Fideles (Luciano Pavarotti & Trisha Yearwood)
17. Peace Wanted Just To Be Free (Luciano Pavarotti & Stevie Wonder)

EAC

Exact Audio Copy V0.99 prebeta 4 from 23. January 2008
Отчёт EAC об извлечении, выполненном 22. ноября 2009, 19:51
- / -
Дисковод: Optiarc DVD RW AD-5170A Adapter: 0 ID: 0
Режим чтения : Достоверность
Использование точного потока : Да
Отключение кэша аудио : Да
Использование указателей C2 : Нет
Коррекция смещения при чтении : 48
Способность читать области Lead-in и Lead-out : Нет
Заполнение пропущенных сэмплов тишиной : Да
Удаление блоков с тишиной в начале и конце : Нет
При вычислениях CRC использовались нулевые сэмплы : Да
Интерфейс : Установленный внешний ASPI-интерфейс
Выходной формат : Пользовательский кодировщик
Выбранный битрейт : 768 kBit/s
Качество : Высокий
Добавление ID3-тэга : Нет
Утилита сжатия : C:\Program Files\Exact Audio Copy\FLAC\FLAC.EXE
Дополнительные параметры : -6 -V -T "ARTIST=%a" -T "TITLE=%t" -T "ALBUM=%g" -T "DATE=%y" -T "TRACKNUMBER=%n" -T "GENRE=%m" -T "COMMENT=%e" %s -o %d
TOC извлечённого CD
Трек | Старт | Длительность | Начальный сектор | Конечный сектор
---------------------------------------------------------------------
1 | 0:00.00 | 4:58.16 | 0 | 22365
2 | 4:58.16 | 3:30.71 | 22366 | 38186
3 | 8:29.12 | 3:52.19 | 38187 | 55605
4 | 12:21.31 | 4:54.59 | 55606 | 77714
5 | 17:16.15 | 4:00.49 | 77715 | 95763
6 | 21:16.64 | 3:38.42 | 95764 | 112155
7 | 24:55.31 | 4:36.03 | 112156 | 132858
8 | 29:31.34 | 4:50.65 | 132859 | 154673
9 | 34:22.24 | 4:57.14 | 154674 | 176962
10 | 39:19.38 | 3:56.05 | 176963 | 194667
11 | 43:15.43 | 4:16.59 | 194668 | 213926
12 | 47:32.27 | 3:46.44 | 213927 | 230920
13 | 51:18.71 | 4:16.70 | 230921 | 250190
14 | 55:35.66 | 4:03.24 | 250191 | 268439
15 | 59:39.15 | 3:50.15 | 268440 | 285704
16 | 63:29.30 | 4:14.18 | 285705 | 304772
17 | 67:43.48 | 5:18.67 | 304773 | 328689
Характеристики диапазона извлечения и сообщения об ошибках
Выбранный диапазон
Имя файла D:\Pavarotti & Friends\Pavarotti & Friends - For The Children Of Liberia.wav
Пиковый уровень 100.0 %
Качество диапазона 100.0 %
CRC копии 5CDECA14
Копирование... OK
Ошибок не произошло
Конец отчёта

audiochecker

AUDIOCHECKER v2.0 beta (build 457) - by Dester - opdester@freemail.hu
~~~~~~~~~~~~~~~~~~~~~~~~~~~~~~~~~~
Начато: воскресенье, 22. 11. 2009. - 19:59.47
Найдено файлов: 1
1 -===- D:\Pavarotti & Friends - For The Children Of Liberia\Pavarotti & Friends - For The Children Of Liberia.flac
Извлечение успешно выполнено
Заключение: этот трек - CDDA с вероятностью 99%
Временный файл удалён.
Завершено: воскресенье, 22. 11. 2009. - 20:30.14 (Время операции: 0:30.26)



Показать сообщения:    

Текущее время: 08-Дек 11:00

Часовой пояс: UTC + 3


Вы не можете начинать темы
Вы не можете отвечать на сообщения
Вы не можете редактировать свои сообщения
Вы не можете удалять свои сообщения
Вы не можете голосовать в опросах
Вы не можете прикреплять файлы к сообщениям
Вы не можете скачивать файлы