(Классика в современной обработке) Don Dorsey - Bachbusters (Music of J.S.Bach As Released On Digital And Other Authentic Period Synthesiz) - 1985, APE (image+.cue)


 

[Цитировать]

Don Dorsey - Music of J.S.Bach As Released On Digital And Other Authentic Period Synthesiz
Жанр: Классика в современной обработке
Год выпуска диска: 1985
Аудио кодек: APE
Тип рипа: image+.cue
Битрейт: lossless
Продолжительность: 47:15
Трэклист:
Italian Concerto,BWV 971
1.Allegro
2.Andante
3.Presto
Two & Three Part Inventions
4.-13.
14.Diverse Kanons,BWV 1087
Toccata & Fugue in D minor, BWV 565
15.Toccata
16.Fugue
17.Jesu,Joy Of Man's Desiring From Cantata 147

Отчет EAC

Exact Audio Copy V0.99 prebeta 4 from 23. January 2008
Отчёт EAC об извлечении, выполненном 16. ноября 2009, 10:27
Don Dorsey / BachBusters: Music of JS Bach as realized on digital and other authentic period synthesizers (Don Dorsey) [TELARC]
Дисковод: _NEC DVD_RW ND-1300A Adapter: 4 ID: 0
Режим чтения : Достоверность
Использование точного потока : Да
Отключение кэша аудио : Да
Использование указателей C2 : Нет
Коррекция смещения при чтении : 48
Способность читать области Lead-in и Lead-out : Нет
Заполнение пропущенных сэмплов тишиной : Да
Удаление блоков с тишиной в начале и конце : Нет
При вычислениях CRC использовались нулевые сэмплы : Да
Интерфейс : Установленный внешний ASPI-интерфейс
Выходной формат : Внутренние WAV-операции
Формат сэмплов : 44.100 Гц; 16 бит; стерео
TOC извлечённого CD
Трек | Старт | Длительность | Начальный сектор | Конечный сектор
---------------------------------------------------------------------
1 | 0:00.00 | 3:38.29 | 0 | 16378
2 | 3:38.29 | 5:49.00 | 16379 | 42553
3 | 9:27.29 | 3:31.27 | 42554 | 58405
4 | 12:58.56 | 1:42.12 | 58406 | 66067
5 | 14:40.68 | 0:55.62 | 66068 | 70254
6 | 15:36.55 | 0:56.29 | 70255 | 74483
7 | 16:33.09 | 1:06.65 | 74484 | 79498
8 | 17:39.74 | 0:46.14 | 79499 | 82962
9 | 18:26.13 | 1:04.10 | 82963 | 87772
10 | 19:30.23 | 1:07.27 | 87773 | 92824
11 | 20:37.50 | 1:20.59 | 92825 | 98883
12 | 21:58.34 | 1:05.20 | 98884 | 103778
13 | 23:03.54 | 1:13.42 | 103779 | 109295
14 | 24:17.21 | 7:47.62 | 109296 | 144382
15 | 32:05.08 | 3:09.69 | 144383 | 158626
16 | 35:15.02 | 5:52.30 | 158627 | 185056
17 | 41:07.32 | 6:08.02 | 185057 | 212658
Характеристики диапазона извлечения и сообщения об ошибках
Выбранный диапазон
Имя файла F:\Диск G\Music MP-3\Dopty\Раздачи\dorsey\Don Dorsey - BachBusters Music of JS Bach as realized on digital and other authentic period synthesizers (Don Dorsey) [TELARC].wav
Пиковый уровень 100.0 %
Качество диапазона 99.9 %
CRC копии 1579FB0E
Копирование... OK
Ошибок не произошло
AccurateRip: сводка
Трек 1 нет в базе данных
Трек 2 нет в базе данных
Трек 3 нет в базе данных
Трек 4 нет в базе данных
Трек 5 нет в базе данных
Трек 6 нет в базе данных
Трек 7 нет в базе данных
Трек 8 нет в базе данных
Трек 9 нет в базе данных
Трек 10 нет в базе данных
Трек 11 нет в базе данных
Трек 12 нет в базе данных
Трек 13 нет в базе данных
Трек 14 нет в базе данных
Трек 15 нет в базе данных
Трек 16 нет в базе данных
Трек 17 нет в базе данных
Ни одного трека нет в базе AccurateRip
Конец отчёта



Показать сообщения:    

Текущее время: 07-Дек 11:40

Часовой пояс: UTC + 3


Вы не можете начинать темы
Вы не можете отвечать на сообщения
Вы не можете редактировать свои сообщения
Вы не можете удалять свои сообщения
Вы не можете голосовать в опросах
Вы не можете прикреплять файлы к сообщениям
Вы не можете скачивать файлы