(Классика в Современной Обработке) Rondo Veneziano - Fantasia Veneziana - 1986, APE (image+.cue)


 

[Цитировать]

Rondo Veneziano - Fantasia Veneziana
Жанр: Классика в Современной Обработке
Год выпуска диска: 1986
Производитель диска: Germany (BMG Music)
Аудио кодек: APE
Тип рипа: image+.cue
Битрейт: lossless
Продолжительность: 38:47
Трэклист:
1.Fantasia Veneziana (in La Maggiore)
2.Perle D'oriente
3.Arazzi (1 Parte)
4.Torcello
5.Arazzi (2 Parte)
6.Festa Mediterranea
7.Isole
8.La Guidecca
9.Calli Segrete
10.Gondole
11.Misteriosa Venezia
12.Laguna Stellata
13.Notturno Veneziano

Отчет EAC

Exact Audio Copy V0.99 prebeta 4 from 23. January 2008
Отчёт EAC об извлечении, выполненном 15. ноября 2009, 20:46
Rondo Veneziano / fantasia veneziana
Дисковод: _NEC DVD_RW ND-1300A Adapter: 4 ID: 0
Режим чтения : Достоверность
Использование точного потока : Да
Отключение кэша аудио : Да
Использование указателей C2 : Нет
Коррекция смещения при чтении : 48
Способность читать области Lead-in и Lead-out : Нет
Заполнение пропущенных сэмплов тишиной : Да
Удаление блоков с тишиной в начале и конце : Нет
При вычислениях CRC использовались нулевые сэмплы : Да
Интерфейс : Установленный внешний ASPI-интерфейс
Выходной формат : Внутренние WAV-операции
Формат сэмплов : 44.100 Гц; 16 бит; стерео
TOC извлечённого CD
Трек | Старт | Длительность | Начальный сектор | Конечный сектор
---------------------------------------------------------------------
1 | 0:00.00 | 3:30.50 | 0 | 15799
2 | 3:30.50 | 2:46.00 | 15800 | 28249
3 | 6:16.50 | 3:00.25 | 28250 | 41774
4 | 9:17.00 | 3:02.12 | 41775 | 55436
5 | 12:19.12 | 2:03.38 | 55437 | 64699
6 | 14:22.50 | 2:29.50 | 64700 | 75924
7 | 16:52.25 | 2:45.25 | 75925 | 88324
8 | 19:37.50 | 2:49.25 | 88325 | 101024
9 | 22:27.00 | 3:29.00 | 101025 | 116699
10 | 25:56.00 | 4:36.50 | 116700 | 137449
11 | 30:32.50 | 3:25.00 | 137450 | 152824
12 | 33:57.50 | 2:18.00 | 152825 | 163174
13 | 36:15.50 | 2:31.25 | 163175 | 174524
Характеристики диапазона извлечения и сообщения об ошибках
Выбранный диапазон
Имя файла F:\Диск G\Music MP-3\Dopty\Раздачи\fantasia\Rondo Veneziano - fantasia veneziana.wav
Пиковый уровень 99.3 %
Качество диапазона 100.0 %
CRC копии 77CE0B3F
Копирование... OK
Ошибок не произошло
AccurateRip: сводка
Трек 1 точное извлечение (доверие 8) [F69D060D]
Трек 2 точное извлечение (доверие 8) [469F3096]
Трек 3 точное извлечение (доверие 8) [542387B5]
Трек 4 точное извлечение (доверие 8) [02C43E36]
Трек 5 точное извлечение (доверие 8) [C59A917E]
Трек 6 точное извлечение (доверие 8) [A65BF437]
Трек 7 точное извлечение (доверие 8) [24C22B8A]
Трек 8 точное извлечение (доверие 8) [A27D805C]
Трек 9 точное извлечение (доверие 7) [A7CACDA8]
Трек 10 точное извлечение (доверие 8) [A897E2D3]
Трек 11 точное извлечение (доверие 8) [CC32F1AA]
Трек 12 точное извлечение (доверие 8) [CF5F7133]
Трек 13 точное извлечение (доверие 8) [CC774F94]
Все треки извлечены точно
Конец отчёта



Показать сообщения:    

Текущее время: 07-Дек 00:47

Часовой пояс: UTC + 3


Вы не можете начинать темы
Вы не можете отвечать на сообщения
Вы не можете редактировать свои сообщения
Вы не можете удалять свои сообщения
Вы не можете голосовать в опросах
Вы не можете прикреплять файлы к сообщениям
Вы не можете скачивать файлы